455 lines
19 KiB
Plaintext
455 lines
19 KiB
Plaintext
//TJADB Project
|
|
TITLE:PENETRATION
|
|
TITLEJA:PENETRATION
|
|
SUBTITLE:--Keiyo Kawamoto/RAYFORCE
|
|
SUBTITLEJA:タイトー「レイフォース」より
|
|
BPM:147
|
|
WAVE:PENETRATION.ogg
|
|
OFFSET:-2.143
|
|
DEMOSTART:11.836
|
|
|
|
COURSE:Oni
|
|
LEVEL:9
|
|
SCOREINIT:420
|
|
SCOREDIFF:90
|
|
|
|
|
|
#START
|
|
|
|
|
|
000000000000000000000000000000000000000000000000,
|
|
000000000000000000000000000000000000000000000000,
|
|
000000000000000000000000000000000000000000000000,
|
|
100000000000100000000000100000000000100000000000,
|
|
100000000000100000000000100000000000100000000000,
|
|
100000000000100000000000100000000000100000000200,
|
|
100000200000000000000000200000200000200000200000,
|
|
100000000100000000200100100000100000200000100200,
|
|
100000000100000000200100100000100000200000100200,
|
|
100000000100000000200100100000100000200000100200,
|
|
100000000100000000200100100000100000200000100200,
|
|
100000000100000000200100100000100000200000100200,
|
|
100000000100000000200100100000100000200000100200,
|
|
100000000100000000200100100000100000200000100200,
|
|
100200200000100200200000100000100000200000100200,
|
|
100000000100000000200100100000100000200000100200,
|
|
100000000100000000200100100000100000200000100200,
|
|
100000000100000000200100100000100000200000100200,
|
|
100000000100000000200100100000100000200000100200,
|
|
100000000100000000200100100000100000200000100200,
|
|
100000000100000000200100100000200000200000100200,
|
|
100000000100000000200100100000100000200000100200,
|
|
100000000100000000200100100000100000200000100200,
|
|
100000000100000000200100100000100000200000100200,
|
|
100200100000100200100000100200000200200200200200,
|
|
100000000100200100000100100000100000100100000100,
|
|
100000000100200100000100100000100000200100000100,
|
|
100000000100200100000100100000100000100100000100,
|
|
100000000100200100000100100100100000200100000100,
|
|
100000000100200100000100100000100000100100000100,
|
|
100000000100200100000100100000100000200000100100,
|
|
100000100000200000100000000000100000000000200000,
|
|
100000100100200000200000100200200000200000200200,
|
|
100000000100200100000100100000100000100100000100,
|
|
100000000100200100000100100000100000200100000100,
|
|
100000000100200100000100100000100000100100000100,
|
|
100000000100200100000100100100100000200100000100,
|
|
100000000100200100000100100000100000100100000100,
|
|
100000000100200100000100100000100000200000100100,
|
|
100000100000200000100000100200200000100200200000,
|
|
200000000200200200000200100200200000200000400000,
|
|
#MEASURE 2/4
|
|
000000000000000000100000,
|
|
#MEASURE 4/4
|
|
000100000000200100100100100000100000200100000000,
|
|
100000200100200100100100100000100000200100000000,
|
|
100000000100200100100100100000100000200100000000,
|
|
100000200100200100100100100000100000200000000200,
|
|
100000000100200100100200100000100000200100000000,
|
|
100000200100200100100100100000100000200100000000,
|
|
100000000100200100100200100000100000200100000000,
|
|
100000200100200100100100100000200000200000200200,
|
|
100000200100200100100200100000100000200100000000,
|
|
100000200100200100100100100000100000200100000000,
|
|
100000200100200100100200100000100000200100000000,
|
|
100000200100200100100100100200000200100000200200,
|
|
100000200100200100100200100000100000200100000000,
|
|
100000200100200100100200100000100000200100000200,
|
|
100000200100200100100200100000100000200100000000,
|
|
100000200100200100000000200000200000200000200200,
|
|
|
|
#GOGOSTART
|
|
100000000100200100000100100000100000100100000100,
|
|
100000000100200100000100100000100000200100000100,
|
|
100000000100200100000100100000100000100100000100,
|
|
100000000100200100000100100100100000200100000100,
|
|
100000000100200100000100100000100000100100000100,
|
|
100000000100200100000100100000100000200000100100,
|
|
100000100000200000100000000000100000000000200000,
|
|
100000100100200000000000100200200000200000200200,
|
|
100000000100200100000100100000100000200100000100,
|
|
100000000100200100000100100000100000200100000100,
|
|
100000000100200100000100100000100000200100000100,
|
|
100000000100200100000100100100100000200100000100,
|
|
100000000100200100000100100000100000200100000100,
|
|
100000000100200100000100100000100000200000100100,
|
|
100000100000200000100000100200200000100000000000,
|
|
200000000200200200000000200000200000200000200000,
|
|
|
|
#GOGOEND
|
|
100000000100000000200100100000100000200000100200,
|
|
100000000100000000200100100000100000200000100200,
|
|
100000000100000000200100100000100000200000100200,
|
|
100000000100000000200100100000100000200000100200,
|
|
100000000100000000200100100000100000200000100200,
|
|
100000000100000000200100100000100000200000100200,
|
|
100000000100000000200100100000100000200000100200,
|
|
100200200000100200200000100200200000200200100200,
|
|
100000000100000000200100100000100000200000100200,
|
|
100000000100000000200100100000100000200000100200,
|
|
100000000100000000200100100000100000200000100200,
|
|
100000000100000000200100100000100000200000100200,
|
|
100000000100000000200100100000100000200000100200,
|
|
100000000100000000200100100000100000200000100200,
|
|
100000000100000000200100100000100000200000100200,
|
|
100000000100000000200100100000100000200000100200,
|
|
100000000100000000200100100000100000200000100200,
|
|
100200100000200100200000100200000200200200200200,
|
|
|
|
|
|
#END
|
|
|
|
|
|
COURSE:Hard
|
|
LEVEL:7
|
|
BALLOON:30,30
|
|
SCOREINIT:590
|
|
SCOREDIFF:120
|
|
|
|
|
|
#START
|
|
|
|
|
|
000000000000000000000000000000000000000000000000,
|
|
000000000000000000000000000000000000000000000000,
|
|
000000000000000000000000000000000000000000000000,
|
|
100000000000100000000000100000000000100000000000,
|
|
100000000000100000000000100000000000100000000000,
|
|
100000000000100000000000100000000000100000000000,
|
|
300000000000000000000000200000200000200000200000,
|
|
100000000100000000200200000000100000200000000000,
|
|
100000000100000000200200000000100000200000000000,
|
|
100000000100000000200200000000100000200000000000,
|
|
100000000100000000200200000000100000200000000000,
|
|
100000000100000000200200000000100000200000100000,
|
|
100000000100000000200200000000100000200000500000,
|
|
000000000000000000000000000000000000000000800000,
|
|
000000000000000000000000100000100000000000200000,
|
|
100000000100000000200200000000100000200000000000,
|
|
100000000100000000200200000000100000200000000000,
|
|
100000000100000000200200000000100000200000000000,
|
|
100000000100000000200200000000100000200000100000,
|
|
100000000100000000200200000000100000200000100000,
|
|
100000000100000000200200000000100000200000000000,
|
|
700000000000000000000000000000000000000000000000,
|
|
000000000000000000000000000000000000000000000000,
|
|
000000000000000000000000000000000000000000000800,
|
|
000000000000000000000000000000000000000000000000,
|
|
100000100000100000200000100000200000000000100000,
|
|
000000100000000000000100100000100000200000000000,
|
|
100000100000100000200000100000200000000000100000,
|
|
100000000100200000000000100000000100200000000000,
|
|
100000100000100000200000100000200000000000100000,
|
|
000000100000000000000100100000100000200000100100,
|
|
100000100000200000100000000000100000000000500000,
|
|
000000000000000000000000000000000000000800000000,
|
|
100000100000100000200000100000200000000000100000,
|
|
000000100000000000000100100000100000200000000000,
|
|
100000100000100000200000100000200000000000100000,
|
|
100000000100200000000000100000000100200000000000,
|
|
100000100000100000200000100000200000000000100000,
|
|
000000100000000000000100100000100000200000100100,
|
|
100000100000200000100000100000200000500000000000,
|
|
000000000000000000000000000000000000000800000000,
|
|
#MEASURE 2/4
|
|
000000000000000000100000,
|
|
#MEASURE 4/4
|
|
000100000000200000100000100000100000200000000000,
|
|
100000000100000000200000100000100000200200000000,
|
|
100000000100000000200000100000100000200000100000,
|
|
100000000100000000200000100000100000200200000000,
|
|
100000000100000000200000100000100000200000000000,
|
|
100000000100000000200000100000100000200200000000,
|
|
100000000100000000200000100000100000200000100000,
|
|
100000000100000000200000100000100000200000100000,
|
|
100000000100000000200000100000100000200000000000,
|
|
100000000100000000200000100000100000200200000000,
|
|
100000100000200000100000100000100000200000000000,
|
|
100000000100000000200000100000100000200200000000,
|
|
100000000100000000200000100000100000200000100000,
|
|
100000000100000000200000100000100000200000100000,
|
|
000000100000200000100000000000100000200000100000,
|
|
000000100000200000300000000000000000000000000000,
|
|
#GOGOSTART
|
|
100000100000100000200000100000200000000000100000,
|
|
000000100000000000000100100000100000200000000000,
|
|
100000100000100000200000100000200000000000100000,
|
|
100000000100200000000000100000000100200000000000,
|
|
100000100000100000200000100000200000000000100000,
|
|
000000100000000000000100100000100000200000100100,
|
|
100000100000200000100000000000100000000000500000,
|
|
000000000000000000000000000000000000000800000000,
|
|
100000100000100000200000100000200000000000100000,
|
|
000000100000000000000100100000100000200000000000,
|
|
100000100000100000200000100000200000000000100000,
|
|
100000000100200000000000100000000100200000000000,
|
|
100000100000100000200000100000200000000000100000,
|
|
000000100000000000000100100000100000200000100100,
|
|
100000100000200000100000100000200000500000000000,
|
|
000000000000000000000000000000000000000800000000,
|
|
#GOGOEND
|
|
100000000100000000200200000000100000200000000000,
|
|
100000000100000000200200000000100000200000000000,
|
|
100000000100000000200200000000100000200000000000,
|
|
100000000100000000200200000000100000200000000000,
|
|
100000000100000000200200000000100000200000100000,
|
|
100000000100000000200200000000100000200000500000,
|
|
000000000000000000000000000000000000000000800000,
|
|
000000000000000000000000100000100000000000200000,
|
|
100000000100000000200200000000100000200000000000,
|
|
100000000100000000200200000000100000200000000000,
|
|
100000000100000000200200000000100000200000000000,
|
|
100000000100000000200200000000100000200000100000,
|
|
100000000100000000200200000000100000200000100000,
|
|
100000000100000000200200000000100000200000000000,
|
|
700000000000000000000000000000000000000000000000,
|
|
000000000000000000000000000000000000000000000000,
|
|
000000000000000000000000000000000000000000000800,
|
|
000000000000000000000000000000000000000000000400,
|
|
|
|
|
|
#END
|
|
|
|
|
|
COURSE:Normal
|
|
LEVEL:5
|
|
BALLOON:24,24
|
|
SCOREINIT:700
|
|
SCOREDIFF:170
|
|
|
|
|
|
#START
|
|
|
|
|
|
000000000000000000000000000000000000000000000000,
|
|
000000000000000000000000000000000000000000000000,
|
|
000000000000000000000000000000000000000000000000,
|
|
100000000000000000000000000000000000000000000000,
|
|
100000000000100000000000100000000000100000000000,
|
|
100000000000100000000000100000000000100000000000,
|
|
300000000000000000000000000000000000000000000000,
|
|
100000000100000000000000100000100000200000000000,
|
|
100000000100000000000000000000000000200000000000,
|
|
100000000100000000000000100000100000200000000000,
|
|
100000000100000000000000000000000000000000000000,
|
|
100000000100000000000000100000100000200000000000,
|
|
100000000100000000000000100000100000200000000000,
|
|
500000000000000000000000000000000000000000800000,
|
|
000000000000000000000000000000000000000000000000,
|
|
100000000100000000000000100000100000200000000000,
|
|
100000000100000000000000000000000000200000000000,
|
|
100000000100000000000000100000100000200000000000,
|
|
100000000100000000000000000000000000000000000000,
|
|
100000000100000000000000100000100000200000000000,
|
|
100000000100000000000000100000100000200000000000,
|
|
700000000000000000000000000000000000000000000000,
|
|
000000000000000000000000000000000000000000000000,
|
|
000000000000000000000000000000000000000000000800,
|
|
000000000000000000000000000000000000000000000000,
|
|
100000000000000000000000100000100000000000100000,
|
|
000000100000000000000000000000000000000000000000,
|
|
100000000000000000000000200000200000000000000000,
|
|
100000000000200000000000100000000000200000000000,
|
|
100000000000000000000000100000100000000000100000,
|
|
000000100000000000000000000000000000000000000000,
|
|
100000000000100000100000000000100000000000500000,
|
|
000000000000000000000000000800000000000000000000,
|
|
100000000000000000000000100000100000000000200000,
|
|
000000200000000000000000000000000000000000000000,
|
|
100000000000000000000000100000100000000000000000,
|
|
200000000000100000000000200000000000100000000000,
|
|
100000000000000000000000100000100000000000200000,
|
|
000000200000000000000000000000000000000000000000,
|
|
100000000000100000100000100000100000500000000000,
|
|
000000000000000000000000000000000800000000000000,
|
|
#MEASURE 2/4
|
|
000000000000000000100000,
|
|
#MEASURE 4/4
|
|
000000000000000000000000100000000000200000000000,
|
|
100000000100000000000000100000000000200000000000,
|
|
100000000000000000000000100000000000200000000000,
|
|
100000000100000000000000100000000000200000000000,
|
|
100000000000000000000000100000000000200000000000,
|
|
100000000100000000000000100000000000200000000000,
|
|
100000000000000000000000100000000000200000000000,
|
|
100000000100000000000000100000100000100000100000,
|
|
000000000000000000000000100000000000200000000000,
|
|
100000000100000000000000100000000000200000000000,
|
|
100000000000000000000000100000000000200000000000,
|
|
100000000100000000000000100000000000000000000000,
|
|
100000000100000000000000100000000000200000000000,
|
|
100000000100000000000000100000000000200000000000,
|
|
100000000000100000100000000000100000100000300000,
|
|
000000000000000000300000000000000000000000000000,
|
|
#GOGOSTART
|
|
100000000000000000000000100000100000000000100000,
|
|
000000100000000000000000000000000000000000000000,
|
|
100000000000000000000000200000200000000000000000,
|
|
100000000000200000000000100000000000200000000000,
|
|
100000000000000000000000100000100000000000100000,
|
|
000000100000000000000000000000000000000000000000,
|
|
100000000000100000100000000000100000000000500000,
|
|
000000000000000000000000000800000000000000000000,
|
|
100000000000000000000000100000100000000000200000,
|
|
000000200000000000000000000000000000000000000000,
|
|
100000000000000000000000100000100000000000000000,
|
|
200000000000100000000000200000000000100000000000,
|
|
100000000000000000000000100000100000000000200000,
|
|
000000200000000000000000000000000000000000000000,
|
|
100000000000100000100000100000100000500000000000,
|
|
000000000000000000000000000000000800000000000000,
|
|
#GOGOEND
|
|
100000000100000000000000100000100000200000000000,
|
|
100000000100000000000000000000000000200000000000,
|
|
100000000100000000000000100000100000200000000000,
|
|
100000000100000000000000000000000000000000000000,
|
|
100000000100000000000000100000100000200000000000,
|
|
100000000100000000000000100000100000200000000000,
|
|
500000000000000000000000000000000000000000800000,
|
|
000000000000000000000000000000000000000000000000,
|
|
100000000100000000000000100000100000200000000000,
|
|
100000000100000000000000000000000000200000000000,
|
|
100000000100000000000000100000100000200000000000,
|
|
100000000100000000000000000000000000000000000000,
|
|
100000000100000000000000100000100000200000000000,
|
|
100000000100000000000000100000100000200000000000,
|
|
700000000000000000000000000000000000000000000000,
|
|
000000000000000000000000000000000000000000000000,
|
|
000000000000000000000000000000000000000000000800,
|
|
000000000000000000000000000000000000000000000400,
|
|
|
|
|
|
#END
|
|
|
|
|
|
COURSE:Easy
|
|
LEVEL:5
|
|
BALLOON:20,20
|
|
SCOREINIT:640
|
|
SCOREDIFF:150
|
|
|
|
|
|
#START
|
|
|
|
|
|
000000000000000000000000000000000000000000000000,
|
|
000000000000000000000000000000000000000000000000,
|
|
000000000000000000000000000000000000000000000000,
|
|
100000000000000000000000000000000000000000000000,
|
|
100000000000000000000000000000000000000000000000,
|
|
100000000000000000000000000000000000000000000000,
|
|
300000000000000000000000000000000000000000000000,
|
|
100000000100000000000000000000000000200000000000,
|
|
100000000100000000000000000000000000200000000000,
|
|
100000000100000000000000000000000000200000000000,
|
|
100000000100000000000000000000000000000000000000,
|
|
100000000100000000000000000000000000200000000000,
|
|
100000000100000000000000000000000000200000000000,
|
|
500000000000000000000000000000000000000000000800,
|
|
000000000000000000000000000000000000000000000000,
|
|
100000000100000000000000000000000000200000000000,
|
|
100000000100000000000000000000000000200000000000,
|
|
100000000100000000000000000000000000200000000000,
|
|
100000000100000000000000000000000000000000000000,
|
|
100000000100000000000000000000000000200000000000,
|
|
100000000100000000000000000000000000200000000000,
|
|
700000000000000000000000000000000000000000000000,
|
|
000000000000000000000000000000000000000000000000,
|
|
000000000000000000000000000000000000000000000800,
|
|
000000000000000000000000000000000000000000000000,
|
|
100000000000000000000000100000000000000000100000,
|
|
000000100000000000000000000000000000000000000000,
|
|
100000000000000000000000200000000000000000000000,
|
|
100000000000000000000000200000000000000000000000,
|
|
100000000000000000000000100000000000000000100000,
|
|
000000100000000000000000000000000000000000000000,
|
|
100000000000000000100000000000000000000000500000,
|
|
000000000000000000000000000800000000000000000000,
|
|
100000000000000000000000200000000000000000100000,
|
|
000000100000000000000000000000000000000000000000,
|
|
100000000000000000000000200000000000000000000000,
|
|
100000000000000000000000100000000000000000000000,
|
|
100000000000000000000000200000000000000000100000,
|
|
000000100000000000000000000000000000000000000000,
|
|
100000000000000000000000100000100000500000000000,
|
|
000000000000000000000000000000000800000000000000,
|
|
#MEASURE 2/4
|
|
000000000000000000000000,
|
|
#MEASURE 4/4
|
|
000000000000000000000000100000000000200000000000,
|
|
100000000000000000000000100000000000200000000000,
|
|
100000000000000000000000100000000000200000000000,
|
|
100000000000200000000000100000000000200000000000,
|
|
100000000000000000000000100000000000200000000000,
|
|
100000000000000000000000100000000000200000000000,
|
|
100000000000000000000000100000000000200000000000,
|
|
100000000000200000000000100000000000200000000000,
|
|
100000000000000000000000100000000000200000000000,
|
|
100000000000000000000000100000000000200000000000,
|
|
100000000000000000000000100000000000200000000000,
|
|
100000000000200000000000100000000000200000000000,
|
|
100000000000000000000000100000000000200000000000,
|
|
100000000000000000000000100000000000200000000000,
|
|
100000000000100000100000000000000000000000000000,
|
|
300000000000000000300000000000000000000000000000,
|
|
#GOGOSTART
|
|
100000000000000000000000100000000000000000100000,
|
|
000000100000000000000000000000000000000000000000,
|
|
100000000000000000000000200000000000000000000000,
|
|
100000000000000000000000200000000000000000000000,
|
|
100000000000000000000000100000000000000000100000,
|
|
000000100000000000000000000000000000000000000000,
|
|
100000000000000000100000000000000000000000500000,
|
|
000000000000000000000000000800000000000000000000,
|
|
100000000000000000000000200000000000000000100000,
|
|
000000100000000000000000000000000000000000000000,
|
|
100000000000000000000000200000000000000000000000,
|
|
100000000000000000000000100000000000000000000000,
|
|
100000000000000000000000200000000000000000100000,
|
|
000000100000000000000000000000000000000000000000,
|
|
100000000000000000100000100000100000500000000000,
|
|
000000000000000000000800000000000000000000000000,
|
|
#GOGOEND
|
|
100000000100000000000000000000000000200000000000,
|
|
100000000100000000000000000000000000200000000000,
|
|
100000000100000000000000000000000000200000000000,
|
|
100000000100000000000000000000000000000000000000,
|
|
100000000100000000000000000000000000200000000000,
|
|
100000000100000000000000000000000000200000000000,
|
|
500000000000000000000000000000000000000000000800,
|
|
000000000000000000000000000000000000000000000000,
|
|
100000000100000000000000000000000000200000000000,
|
|
100000000100000000000000000000000000200000000000,
|
|
100000000100000000000000000000000000200000000000,
|
|
100000000100000000000000000000000000000000000000,
|
|
100000000100000000000000000000000000200000000000,
|
|
100000000100000000000000000000000000200000000000,
|
|
700000000000000000000000000000000000000000000000,
|
|
000000000000000000000000000000000000000000000000,
|
|
000000000000000000000000000000000000000000000800,
|
|
000000000000000000000000000000000000000000000400,
|
|
|
|
|
|
#END
|
|
|