703 lines
22 KiB
Plaintext
703 lines
22 KiB
Plaintext
//TJADB Project
|
||
TITLE:Reimei Starline
|
||
TITLEJA:黎明スターライン
|
||
SUBTITLE:--Yuuji Masubuchi feat. Asami Shimoda/THE iDOLM@STER MUST SONGS: Red Album
|
||
BPM:168
|
||
WAVE:Reimei Starline.ogg
|
||
OFFSET:-1.716
|
||
DEMOSTART:78.856
|
||
|
||
COURSE:Oni
|
||
LEVEL:8
|
||
BALLOON:24,24,10
|
||
SCOREINIT:480
|
||
SCOREDIFF:115
|
||
|
||
|
||
#START
|
||
|
||
|
||
#SCROLL 0.8
|
||
000000000000000000000000000000000000000000000000,
|
||
200000002000000000002000000000001000100000000000,
|
||
000040000000400000000000000000000000000000000000,
|
||
202020002000200010001000100000003000000000000000,
|
||
100000001000200010001000100000001000200000000000,
|
||
100000001000200010001000100000001000200000000000,
|
||
200000002000000010002000000020000000100020001000,
|
||
200000002000000010002000000020000000100020001000,
|
||
600000000000000000000000000000000000000000000008,
|
||
000000000000000000000000000000000000000000
|
||
#SCROLL 2.5
|
||
508
|
||
#SCROLL 3
|
||
508,
|
||
#BARLINEOFF
|
||
#SCROLL 3.5
|
||
508
|
||
#SCROLL 4
|
||
508
|
||
#SCROLL 5
|
||
508
|
||
#SCROLL 6
|
||
508
|
||
#SCROLL 8
|
||
508
|
||
#SCROLL 10
|
||
508
|
||
#SCROLL 13
|
||
508
|
||
#SCROLL 15
|
||
508
|
||
#SCROLL 16
|
||
608
|
||
#SCROLL 17
|
||
608
|
||
#SCROLL 18
|
||
608608608608608608,
|
||
#MEASURE 3/8
|
||
608608608000000000,
|
||
#MEASURE 1/16
|
||
#BARLINEON
|
||
#SCROLL 0.5
|
||
,
|
||
#SCROLL 0.58
|
||
,
|
||
#SCROLL 0.75
|
||
,
|
||
#SCROLL 0.96
|
||
,
|
||
#SCROLL 1.35
|
||
,
|
||
#SCROLL 2
|
||
,
|
||
#SCROLL 3
|
||
,
|
||
#MEASURE 3/16
|
||
#SCROLL 4.5
|
||
,
|
||
#MEASURE 4/4
|
||
#SCROLL 1
|
||
100000001000000010001000100000001000000010001000,
|
||
100000001000000010001000100000002000000020000000,
|
||
700000000000000000000000000000000000000000000000,
|
||
000000000000000000000000800000000000000000000000,
|
||
100000001000000010001000100000001000000010001000,
|
||
200000002000000020002000100000001000200020002000,
|
||
100000001000000010001000100000001000000010001000,
|
||
100000001000000010001000200000002000000020000000,
|
||
100000001000000010001000100000001000000010001000,
|
||
100000001000000010001000100000002000000020000000,
|
||
300000003000000000000000400000004000000000000000,
|
||
300000003000000000000000400000004000000000000000,
|
||
200000002000100020001000200000002000100020001000,
|
||
200000002000100020001000200000002000100020002000,
|
||
100000003000000020002000200020001000100020000000,
|
||
300000003000000020002000200010001000200020000000,
|
||
200000002000100020001000200000002000000020000000,
|
||
300000001000000020001000000010000000200010001000,
|
||
100000001000000010001000200000002000000020001000,
|
||
100000001000000010001000200000002000000020000000,
|
||
100000001000000010001000200000002000000020001000,
|
||
100000001000000010000000200000002000000020000000,
|
||
700000000000000000000000000000000000000000000000,
|
||
000000000000000000000000800000000000000000000000,
|
||
100010002000100000001000100020001000000020001000,
|
||
000030000000300000000000000040000000400000000000,
|
||
100000001000000010001000200000002000000020001000,
|
||
100000001000000010001000200000002000000020000000,
|
||
100000001000000010001000200000002000000020001000,
|
||
100000001000000010000000200000002000000020000000,
|
||
300000003000000010001000200000002000000000000000,
|
||
300000003000000010001000200000002000000000000000,
|
||
200000002000100020001000200000002000100020001000,
|
||
200000002000100020001000200000002000100020002000,
|
||
100000003000000020002000200010001000100020000000,
|
||
300000003000000020001000100010000000200020000000,
|
||
200000002000100020001000200000002000100020002000,
|
||
100010001000100020002000200020001000100010001000,
|
||
100000001000000020001000000010000000200010001000,
|
||
200000002000000010002000000020000000100020002000,
|
||
100000000000100000002000100010000000200000001000,
|
||
100000000000000000000000000000000000
|
||
|
||
#GOGOSTART
|
||
400000000000,
|
||
100000001000200010001000100000001000200010001000,
|
||
100000001000200010001000100000001000200010001000,
|
||
100000001000200010001000200000001000500000000000,
|
||
000000000000000000000000000000000008000000000000,
|
||
100000001000200010001000100000001000200010001000,
|
||
100000001000200010001000100000001000200010001000,
|
||
100000001000200010002000100000001000200010002000,
|
||
700000000000000000000000000000008000000000000000,
|
||
100000001000200010001000100000002000000020000000,
|
||
100000001000200010001000100000001000200000000000,
|
||
100000000000400000000000100000000000400000000000,
|
||
100000000000400000002000000020000000400000000000,
|
||
100000002000100000002000000020000000100020000000,
|
||
200020000000100000002000000020002000100000002000,
|
||
#SCROLL 8
|
||
500000000000000000000000000000000000000000000000,
|
||
#BARLINEOFF
|
||
000000080000000000000000000000000000000000000000,
|
||
#BARLINEON
|
||
#SCROLL 1
|
||
100000001000200010001000100000001000200010001000,
|
||
100000001000200010001000100000001000200010001000,
|
||
100000001000200010001000200000001000500000000000,
|
||
000000000000000000000000000000000008000000000000,
|
||
100000001000200010001000100000001000200010001000,
|
||
100000001000200010001000100000001000200010001000,
|
||
100000001000200010002000100000001000200010002000,
|
||
100100100100200200200200100010001000200020002000,
|
||
100000001000200010001000100000001000200010001000,
|
||
100000001000200010001000100000001000200000001000,
|
||
200000001000200000002000000000001000000020000000,
|
||
100000002000000010002000200000001000200020000000,
|
||
200000002000200000001000000010000000200010000000,
|
||
100000001000100000002000000020000000100020002000,
|
||
200000002000200000001000000010000000200010000000,
|
||
100000001000100000002000100020002000200020002000,
|
||
100000001000000020001000000010000000200010001000,
|
||
200000002000000010002000000020000000000000000000,
|
||
|
||
#GOGOEND
|
||
300000000000000000000000000000000000000000000000,
|
||
000000000000000000000000000000000000
|
||
|
||
#GOGOSTART
|
||
#SCROLL 3
|
||
400000000000,
|
||
|
||
#GOGOEND
|
||
#SCROLL 1
|
||
100000001000200010001000100000001000200000000000,
|
||
100000001000200010001000100000001000200000000000,
|
||
200000002000100000002000000020000000100020000000,
|
||
200000002000100000002000000020000000100020002000,
|
||
200000002000100000004000000040000000100000000000,
|
||
300000000000000000000000000000000000400000000000,
|
||
100020002000200000001000200020001000000000000000,
|
||
|
||
|
||
#END
|
||
|
||
|
||
COURSE:Hard
|
||
LEVEL:7
|
||
BALLOON:20,20,8
|
||
SCOREINIT:550
|
||
SCOREDIFF:140
|
||
|
||
|
||
#START
|
||
|
||
|
||
#SCROLL 0.8
|
||
000000000000000000000000000000000000000000000000,
|
||
200000002000000000002000000000001000100000000000,
|
||
000020000000200000000000000000000000000000000000,
|
||
200020002000200020002000200000001000000000000000,
|
||
100000001000200000000000100000001000200000000000,
|
||
100000001000200000000000100000001000200000000000,
|
||
200000002000000000002000000020000000100000000000,
|
||
200000002000000000002000000020000000100000000000,
|
||
600000000000000000000000000000000000000000000008,
|
||
000000000000000000000000000000000000000000
|
||
#SCROLL 2.5
|
||
508
|
||
#SCROLL 3
|
||
508,
|
||
#BARLINEOFF
|
||
#SCROLL 3.5
|
||
508
|
||
#SCROLL 4
|
||
508
|
||
#SCROLL 5
|
||
508
|
||
#SCROLL 6
|
||
508
|
||
#SCROLL 8
|
||
508
|
||
#SCROLL 10
|
||
508
|
||
#SCROLL 13
|
||
508
|
||
#SCROLL 15
|
||
508
|
||
#SCROLL 16
|
||
608
|
||
#SCROLL 17
|
||
608
|
||
#SCROLL 18
|
||
608608608608608608,
|
||
#MEASURE 3/8
|
||
608608608000000000,
|
||
#MEASURE 1/16
|
||
#BARLINEON
|
||
#SCROLL 0.5
|
||
,
|
||
#SCROLL 0.58
|
||
,
|
||
#SCROLL 0.75
|
||
,
|
||
#SCROLL 0.96
|
||
,
|
||
#SCROLL 1.35
|
||
,
|
||
#SCROLL 2
|
||
,
|
||
#SCROLL 3
|
||
,
|
||
#MEASURE 3/16
|
||
#SCROLL 4.5
|
||
,
|
||
#MEASURE 4/4
|
||
#SCROLL 1
|
||
100000001000000010001000100000001000000000000000,
|
||
100000001000000010001000100000001000000000000000,
|
||
700000000000000000000000000000000000000000000000,
|
||
000000000000000000000000000000008000000000000000,
|
||
100000001000000010001000100000001000000000000000,
|
||
200000002000000020002000200000002000000000000000,
|
||
100000001000000010001000100000001000000000000000,
|
||
100000001000000010001000100000001000000000000000,
|
||
100000001000000010001000100000001000000000000000,
|
||
100000001000000010000000200000002000000020000000,
|
||
300000003000000000000000400000004000000000000000,
|
||
300000003000000000000000400000004000000000000000,
|
||
200000002000100000000000200000002000100000000000,
|
||
200000002000100000000000200000002000100000000000,
|
||
300000003000000000000000400000004000000000000000,
|
||
300000003000000000000000400000004000000000000000,
|
||
200000002000100000000000100000001000000010000000,
|
||
300000000000000000000000000000000000000000000000,
|
||
100000001000000010001000100000001000000000000000,
|
||
100000001000000010001000100000001000000000000000,
|
||
100000001000000010001000100000001000000000000000,
|
||
100000001000000010000000200000002000000020000000,
|
||
700000000000000000000000000000000000000000000000,
|
||
000000000000000000000000000000008000000000000000,
|
||
100010000000100000001000100010001000100000000000,
|
||
000030000000300000000000000040000000400000000000,
|
||
100000001000000010001000100000001000000000000000,
|
||
100000001000000010001000100000001000000000000000,
|
||
100000001000000010001000100000001000000000000000,
|
||
100000001000000010000000200000002000000020000000,
|
||
300000003000000000000000400000004000000000000000,
|
||
300000003000000000000000400000004000000000000000,
|
||
200000002000100000000000200000002000100000000000,
|
||
200000002000100000000000200000002000100000000000,
|
||
300000003000000020002000200020002000200020000000,
|
||
300000003000000020002000200020002000200020000000,
|
||
100000000000100000000000100010001000100000000000,
|
||
300000000000000040000000000000004000000000000000,
|
||
100000001000000000001000000010000000000000000000,
|
||
200000002000000000002000000020000000000000000000,
|
||
100000000000100000000000100000000000100000001000,
|
||
100000000000000000000000000000000000
|
||
#GOGOSTART
|
||
400000000000,
|
||
100000000000200000000000100000001000200000000000,
|
||
100000000000200000000000100000001000200000000000,
|
||
100000000000200000000000200000000000500000000000,
|
||
000000000000000000000000000000000080000000000000,
|
||
100000000000200000000000100000001000200000000000,
|
||
100000000000200000000000100000001000200000000000,
|
||
100000001000200000000000100000001000200000000000,
|
||
700000000000000000000000000000008000000000000000,
|
||
100000000000100000000000100000001000000010000000,
|
||
200000000000200000000000200000002000000020000000,
|
||
100000000000400000000000100000000000400000000000,
|
||
100000000000400000000000300000000000000000000000,
|
||
100000000000100000000000100000001000200000000000,
|
||
200000000000200000000000200000002000100000000000,
|
||
#SCROLL 6
|
||
500000000000000000000000000000000000000000000000,
|
||
#BARLINEOFF
|
||
000000000080000000000000000000000000000000000000,
|
||
#BARLINEON
|
||
#SCROLL 1
|
||
100000000000200000000000100000001000200000000000,
|
||
100000000000200000000000100000001000200000000000,
|
||
100000000000200000000000200000000000500000000000,
|
||
000000000000000000000000000000000080000000000000,
|
||
100000000000200000000000100000001000200000000000,
|
||
100000000000200000000000100000001000200000000000,
|
||
100000001000200000000000100000001000200000000000,
|
||
100000001000200010002000100020001000200000000000,
|
||
100000000000200000000000100000001000200000000000,
|
||
100000000000200000000000100000001000200000000000,
|
||
100000001000200000000000100000002000000020000000,
|
||
200000001000000020000000100000002000000010000000,
|
||
200000002000000000001000000010000000000000000000,
|
||
100000001000000000002000000020000000000000000000,
|
||
200000002000000000001000000010000000000000000000,
|
||
100000001000000000002000000020000000000000000000,
|
||
300000003000000000004000000040000000000000000000,
|
||
300000003000000000004000000040000000000000000000,
|
||
#GOGOEND
|
||
300000000000000000000000000000000000000000000000,
|
||
#MEASURE 3/4
|
||
000000000000000000000000000000000000,
|
||
#MEASURE 1/4
|
||
#GOGOSTART
|
||
400000000000,
|
||
000000000000,
|
||
#GOGOEND
|
||
#MEASURE 4/4
|
||
100000001000200000000000100000001000200000000000,
|
||
100000001000200000000000100000001000200000000000,
|
||
200000002000000000002000000020000000100000000000,
|
||
200000002000000000002000000020000000100000000000,
|
||
200000002000000000004000000040000000000000000000,
|
||
300000000000000000000000000000000000400000000000,
|
||
100010001000100000001000100010001000000000000000,
|
||
|
||
|
||
#END
|
||
|
||
|
||
COURSE:Normal
|
||
LEVEL:6
|
||
BALLOON:14,20,14,14
|
||
SCOREINIT:750
|
||
SCOREDIFF:200
|
||
|
||
|
||
#START
|
||
|
||
|
||
#SCROLL 0.8
|
||
000000000000000000000000000000000000000000000000,
|
||
000000000000000000000000000000000000000000000000,
|
||
000000000000000000000000000000000000000000000000,
|
||
000000000000000000000000000000000000000000000000,
|
||
100000000000200000000000100000000000200000000000,
|
||
100000000000200000000000100000000000200000000000,
|
||
500000000000000000000000000000000000000000000000,
|
||
000000000000000000000000000000000000000080000000,
|
||
600000000000000000000000000000000000000000000008,
|
||
000000000000000000000000000000000000000000
|
||
#SCROLL 2.5
|
||
508
|
||
#SCROLL 3
|
||
508,
|
||
#BARLINEOFF
|
||
#SCROLL 3.5
|
||
508
|
||
#SCROLL 4
|
||
508
|
||
#SCROLL 5
|
||
508
|
||
#SCROLL 6
|
||
508
|
||
#SCROLL 8
|
||
508
|
||
#SCROLL 10
|
||
508
|
||
#SCROLL 13
|
||
508
|
||
#SCROLL 15
|
||
508
|
||
#SCROLL 16
|
||
608
|
||
#SCROLL 17
|
||
608
|
||
#SCROLL 18
|
||
608608608608608608,
|
||
#MEASURE 3/8
|
||
608608608000000000,
|
||
#MEASURE 1/16
|
||
#BARLINEON
|
||
#SCROLL 0.5
|
||
,
|
||
#SCROLL 0.58
|
||
,
|
||
#SCROLL 0.75
|
||
,
|
||
#SCROLL 0.96
|
||
,
|
||
#SCROLL 1.35
|
||
,
|
||
#SCROLL 2
|
||
,
|
||
#SCROLL 3
|
||
,
|
||
#MEASURE 3/16
|
||
#SCROLL 4.5
|
||
,
|
||
#MEASURE 4/4
|
||
#SCROLL 0.9
|
||
100000000000000000000000100000000000000000000000,
|
||
100000001000000000000000100000001000000000000000,
|
||
700000000000000000000000000000000000000000000000,
|
||
000000000000000000000000000000008000000000000000,
|
||
100000000000000000000000100000000000000000000000,
|
||
200000000000200000000000200000000000000000000000,
|
||
100000000000000000000000100000000000000000000000,
|
||
100000001000000000000000100000001000000000000000,
|
||
100000000000000000000000100000000000000000000000,
|
||
200000002000000020000000200000000000000000000000,
|
||
300000003000000000000000000000000000000000000000,
|
||
400000004000000000000000000000000000000000000000,
|
||
200000000000200000000000200000000000200000000000,
|
||
200000000000200000000000200000000000000000000000,
|
||
300000003000000000000000000000000000000000000000,
|
||
400000004000000000000000000000000000000000000000,
|
||
200000000000200000000000100000001000000010000000,
|
||
100000000000000000000000000000000000000000000000,
|
||
100000000000100000000000100000000000000000000000,
|
||
100000001000000000000000100000001000000000000000,
|
||
100000000000100000000000100000000000000000000000,
|
||
200000002000000000000000200000002000000000000000,
|
||
700000000000000000000000000000000000000000000000,
|
||
000000000000000000000000000000000000000000000000,
|
||
000000000000000000000000000000008000000000000000,
|
||
000010000000100000000000000010000000100000000000,
|
||
100000000000100000000000100000000000000000000000,
|
||
100000001000000000000000100000001000000000000000,
|
||
100000000000100000000000100000000000000000000000,
|
||
200000002000000020000000200000000000000000000000,
|
||
300000003000000000000000000000000000000000000000,
|
||
400000004000000000000000000000000000000000000000,
|
||
200000000000200000000000200000000000200000000000,
|
||
200000000000200000000000200000000000000000000000,
|
||
300000003000000000000000000000000000000000000000,
|
||
400000004000000000000000000000000000000000000000,
|
||
100000000000000000000000100000000000000000000000,
|
||
300000000000000030000000000000003000000000000000,
|
||
600000000000000000000000000000000000000000000000,
|
||
000000000000000000000000000000000000000000000080,
|
||
000000000000000000000000000000000000000000000000,
|
||
300000000000000000000000000000000000
|
||
#GOGOSTART
|
||
400000000000,
|
||
000000000000300000000000000000000000300000000000,
|
||
000000000000300000000000000000000000300000000000,
|
||
400000000000300000000000400000000000600000000000,
|
||
000000000000000000000000000080000000000000000000,
|
||
000000000000400000000000000000000000400000000000,
|
||
000000000000400000000000000000000000400000000000,
|
||
700000000000000000000000000000000000000000000000,
|
||
000000000000000000000000000000800000000000000000,
|
||
100000000000200000000000100000000000200000000000,
|
||
100000000000200000000000100000000000000000000000,
|
||
400000000000000000000000400000000000000000000000,
|
||
400000000000000000000000000000000000000000000000,
|
||
100000000000200000000000100000000000200000000000,
|
||
100000000000200000000000100000000000000000000000,
|
||
#SCROLL 2
|
||
500000000000000000000000000000000000000000000000,
|
||
#BARLINEOFF
|
||
000000000080000000000000000000000000000000000000,
|
||
#BARLINEON
|
||
#SCROLL 0.9
|
||
000000000000300000000000000000000000300000000000,
|
||
000000000000300000000000000000000000300000000000,
|
||
400000000000300000000000400000000000600000000000,
|
||
000000000000000000000000000080000000000000000000,
|
||
000000000000400000000000000000000000400000000000,
|
||
000000000000400000000000000000000000400000000000,
|
||
700000000000000000000000000000000000000000000000,
|
||
000000000000000000000000000000800000000000000000,
|
||
100000000000200000000000100000000000200000000000,
|
||
100000000000200000000000100000000000200000000000,
|
||
100000000000200000000000100000000000200000000000,
|
||
500000000000000000000080000000000000000000000000,
|
||
200000002000000000001000000010000000000000000000,
|
||
100000001000000000002000000020000000000000000000,
|
||
200000002000000000001000000010000000000000000000,
|
||
100000001000000000002000000020000000000000000000,
|
||
300000003000000000004000000040000000000000000000,
|
||
300000003000000000004000000040000000000000000000,
|
||
#GOGOEND
|
||
300000000000000000000000000000000000000000000000,
|
||
000000000000000000000000000000000000
|
||
#GOGOSTART
|
||
200000000000,
|
||
#GOGOEND
|
||
100000000000200000000000100000000000200000000000,
|
||
100000000000200000000000100000000000000000000000,
|
||
000000000000300000000000000000000000300000000000,
|
||
000000000000300000000000000000000000300000000000,
|
||
000000000000400000000000000000000000400000000000,
|
||
300000000000000000000000000000000000000000000000,
|
||
100010001000100000001000100010001000000000000000,
|
||
|
||
|
||
#END
|
||
|
||
|
||
COURSE:Easy
|
||
LEVEL:3
|
||
BALLOON:13,10
|
||
SCOREINIT:460
|
||
SCOREDIFF:150
|
||
|
||
|
||
#START
|
||
|
||
|
||
#SCROLL 0.8
|
||
000000000000000000000000000000000000000000000000,
|
||
000000000000000000000000000000000000000000000000,
|
||
000000000000000000000000000000000000000000000000,
|
||
000000000000000000000000000000000000000000000000,
|
||
000000000000300000000000000000000000300000000000,
|
||
000000000000300000000000000000000000300000000000,
|
||
000000000000300000000000000000000000300000000000,
|
||
000000000000300000000000000000000000300000000000,
|
||
000000000000300000000000000000000000300000000000,
|
||
000000000000000000000000000000000000000000
|
||
#SCROLL 2.5
|
||
508
|
||
#SCROLL 3
|
||
508,
|
||
#BARLINEOFF
|
||
#SCROLL 3.5
|
||
508
|
||
#SCROLL 4
|
||
508
|
||
#SCROLL 5
|
||
508
|
||
#SCROLL 6
|
||
508
|
||
#SCROLL 8
|
||
508
|
||
#SCROLL 10
|
||
508
|
||
#SCROLL 13
|
||
508
|
||
#SCROLL 15
|
||
508
|
||
#SCROLL 16
|
||
608
|
||
#SCROLL 17
|
||
608
|
||
#SCROLL 18
|
||
608608608608608608,
|
||
#MEASURE 3/8
|
||
608608608000000000,
|
||
#MEASURE 1/16
|
||
#BARLINEON
|
||
#SCROLL 0.5
|
||
,
|
||
#SCROLL 0.58
|
||
,
|
||
#SCROLL 0.75
|
||
,
|
||
#SCROLL 0.96
|
||
,
|
||
#SCROLL 1.35
|
||
,
|
||
#SCROLL 2
|
||
,
|
||
#SCROLL 3
|
||
,
|
||
#MEASURE 3/16
|
||
#SCROLL 4.5
|
||
,
|
||
#MEASURE 4/4
|
||
#SCROLL 0.9
|
||
100000000000000000000000000000000000000000000000,
|
||
200000000000000000000000200000000000000000000000,
|
||
200000000000000000000000000000000000000000000000,
|
||
000000000000000000000000000000000000000000000000,
|
||
000000000000000000000000000000000000000000000000,
|
||
000000000000000000000000000000000000000000000000,
|
||
000000000000000000000000000000000000000000000000,
|
||
100000000000000000000000000000000000000000000000,
|
||
000000000000000000000000000000000000000000000000,
|
||
100000000000000000000000100000000000000000000000,
|
||
300000003000000000000000000000000000000000000000,
|
||
400000004000000000000000000000000000000000000000,
|
||
000000000000000000000000200000000000000000000000,
|
||
200000000000000000000000200000000000000000000000,
|
||
300000003000000000000000000000000000000000000000,
|
||
400000004000000000000000000000000000000000000000,
|
||
000000000000000000000000000000000000000000000000,
|
||
400000000000000000000000000000000000000000000000,
|
||
000000000000100000000000000000000000100000000000,
|
||
200000000000100000000000000000000000100000000000,
|
||
000000000000100000000000000000000000100000000000,
|
||
200000000000100000000000000000000000100000000000,
|
||
000000000000100000000000000000000000100000000000,
|
||
200000000000100000000000000000000000100000000000,
|
||
000000000000100000000000000000000000100000000000,
|
||
000030000000300000000000000040000000400000000000,
|
||
000000000000100000000000000000000000100000000000,
|
||
200000000000100000000000000000000000100000000000,
|
||
000000000000100000000000000000000000100000000000,
|
||
200000000000100000000000000000000000100000000000,
|
||
300000003000000000000000000000000000000000000000,
|
||
400000004000000000000000000000000000000000000000,
|
||
000000000000100000000000000000000000100000000000,
|
||
000000000000100000000000000000000000100000000000,
|
||
300000003000000000000000000000000000000000000000,
|
||
400000004000000000000000000000000000000000000000,
|
||
000000000000100000000000100000000000100000000000,
|
||
500000000000000000000000000000000080000000000000,
|
||
600000000000000000000000000000000000000000000000,
|
||
000000000000000000000000000000000080000000000000,
|
||
000000000000000000000000000000000000200000000000,
|
||
200000000000000000000000000000000000
|
||
#GOGOSTART
|
||
400000000000,
|
||
000000000000100000000000000000000000100000000000,
|
||
000000000000100000000000000000000000100000000000,
|
||
200000000000100000000000200000000000100000000000,
|
||
000000000000100000000000000000000000100000000000,
|
||
000000000000100000000000000000000000100000000000,
|
||
000000000000100000000000000000000000100000000000,
|
||
500000000000000000000000000000000000000000000000,
|
||
000000000000000000000000000000000000000080000000,
|
||
000000000000100000000000000000000000100000000000,
|
||
200000000000100000000000000000000000100000000000,
|
||
200000000000200000000000200000000000000000000000,
|
||
200000000000200000000000100000000000000000000000,
|
||
200000000000100000000000000000000000100000000000,
|
||
000000000000100000000000000000000000100000000000,
|
||
#SCROLL 2
|
||
500000000000000000000000000000000000000000000000,
|
||
#BARLINEOFF
|
||
000000000080000000000000000000000000000000000000,
|
||
#BARLINEON
|
||
#SCROLL 0.9
|
||
000000000000100000000000000000000000100000000000,
|
||
000000000000100000000000000000000000100000000000,
|
||
200000000000100000000000200000000000100000000000,
|
||
000000000000100000000000000000000000100000000000,
|
||
200000000000100000000000200000000000100000000000,
|
||
200000000000100000000000200000000000100000000000,
|
||
200000000000100000000000000000000000100000000000,
|
||
200000000000100000000000000000000000100000000000,
|
||
000000000000100000000000700000000000000000000000,
|
||
000000000000000000000000000000000000000000000000,
|
||
000000000000000000000000000000800000000000000000,
|
||
200000000000000000000000000000000000000000000000,
|
||
200000002000000000001000000010000000000000000000,
|
||
100000001000000000002000000020000000000000000000,
|
||
200000002000000000001000000010000000000000000000,
|
||
100000001000000000002000000020000000000000000000,
|
||
300000003000000000004000000040000000000000000000,
|
||
300000003000000000004000000040000000000000000000,
|
||
#GOGOEND
|
||
900000000000000000000000000000000000000000000000,
|
||
000000000000000000000000000000000000
|
||
#GOGOSTART
|
||
800000000000,
|
||
#GOGOEND
|
||
000000000000300000000000000000000000300000000000,
|
||
000000000000300000000000000000000000300000000000,
|
||
000000000000300000000000000000000000300000000000,
|
||
000000000000300000000000000000000000300000000000,
|
||
400000000000300000000000000000000000300000000000,
|
||
600000000000000000000000000000000080000000000000,
|
||
300000000000000000003000000000000000000000000000,
|
||
|
||
|
||
#END
|
||
|