Files
ESE/07 Game Music/SHOGYO MUJO/SHOGYO MUJO.tja
T
2023-06-15 19:05:10 -05:00

832 lines
11 KiB
Plaintext

//TJADB Project
TITLE:SHOGYO MUJO
TITLEJA:SHOGYO MUJO
SUBTITLE:--COSIO/Genpei Touma Den
SUBTITLEJA:源平討魔伝リミックス COSIO
BPM:148
WAVE:SHOGYO MUJO.ogg
OFFSET:-3.344
DEMOSTART:129.830
COURSE:Oni
LEVEL:9
BALLOON:100,2,2,2,2,12,12,12,5,5,12,12,12,3,3,3,3,12,12,12,12,12,12,12,12,12,2
SCOREINIT:420
SCOREDIFF:75
#START
22,
2220,
2000202020222020,
20222000,
5,
,
,
000000000000000000000000000000000000000000000008,
,
#BRANCHSTART r,99,100
#N
#MEASURE 4/4
#BARLINEON
04,
1011210110112101,
1011210110112101,
1011210110112101,
1011210110112010,
1011210110112101,
1011210110112121,
1011210110112101,
1011210110112020,
1011210210112102,
1011210210112122,
1011210210112102,
1011210211211120,
1011210210112102,
1011210210112122,
1011210210112102,
1011210211211120,
3000300110221020,
1021102010221020,
1121221122112212,
1011201011012020,
1011210210112102,
1011210210112122,
1011210210112102,
1011210211211120,
3000300110221020,
1021102010221020,
1121221122112212,
1011201020211120,//N39
#GOGOSTART
1001100110011020,
1001100110011221,
1001100110011020,
1001100112211221,
1021120112021121,
1021120112011221,
1021120112021121,
1021120112011221,
1021120112211021,
1021120112212112,
1021120112211021,
1021120112212112,
1021120112211021,
1021120112212112,
1021120112211012,
2112122112122110,
3434,
3000400022022022,
1000100110101111,//N58
#GOGOEND
,
21,
2210,
2000201020221010,
2000222020000000,
7,
,
,
,
#SCROLL 0.9
82
#SCROLL 0.85
02,
#SCROLL 0.8
#BARLINEOFF
02
#SCROLL 0.75
02,
#SCROLL 0.7
02
#SCROLL 0.65
02,
#SCROLL 0.6
02
#SCROLL 0.55
02,
#SCROLL 0.5
#BARLINEON
33,
3330,
33,
3330,
#SCROLL 2
60,
#SCROLL 3
00,
#SCROLL 4
00,
#SCROLL 5
000000000000000000000008,//N79
#SCROLL 1.25
#GOGOSTART
0010120010101200,
0010120020202200,
0010120010101200,
0010120040002220,
0010120011111200,
0010120022211200,
0010120011111200,
0010120040002222,
1010120011111202,
1010120022211200,
1121221122112212,
1011201011212222,
1010120011211202,
1010120022211200,
1010120011211202,
1010120040002220,//N95
#E
#MEASURE 4/4
#BARLINEON
00
#SCROLL 2.5
78,
#SCROLL 1
1011210110112101,
1011210110112101,
1011210110112101,
1011210110112010,
1011210110112101,
1011210110112121,
1011210110112101,
1011210110112020,
1011211210112112,
1011211210112122,
1011211210112112,
1011211211211120,
1011211210212112,
1011211210212122,
1011211210212112,
1011211211211120,
3000300010201120,
1020112010211120,
1020112011211121,
100000200000100100200000100010200010100100200000,
1011211211212112,
1111211211212122,
1111211211212112,
1111211211211120,
3000300010201120,
1020112010211120,
1020112011211121,
100000200000100100200000100010200010100010200000,//E39
#GOGOSTART
1021101121121012,
100200200100500000000000000000000008000000200000,
200100100200500000000000000000000008000000100200,
100100200500000000000000000000000000000008000000,
1021101121121012,
100200200100500000000000000000000008000000200000,
200100100200500000000000000000000008000000100200,
100100200500000000000000000000000000000008000000,
1021101121121012,
1221102101011020,
2112101101021012,
1122102101012212,
1021101121121012,
1221102101011020,
2112101101021012,
1122102101012210,
100100101010200100100100100100101010200200100100,
2121212121212121,
202020100100202020100100100200100200100100200100,//E58
#GOGOEND
,
21,
2210,
2000201020221010,
2000222020000000,
5,
,
,
000000000000000000000000000000000000000000000008,
#SCROLL 0.9
02
#SCROLL 0.85
02,
#SCROLL 0.8
#BARLINEOFF
02
#SCROLL 0.75
02,
#SCROLL 0.7
02
#SCROLL 0.65
02,
#SCROLL 0.6
02
#SCROLL 0.55
02,
#SCROLL 0.5
#BARLINEON
2222,
20201110,
2222,
20201110,
#SCROLL 2
600000000008
#SCROLL 2.5
600000000008,
#SCROLL 3
600000000008
#SCROLL 3.5
600008
#SCROLL 4
600008,
#SCROLL 4.5
600000000008
#SCROLL 5
600000000008,
#SCROLL 5.5
600000000008
#SCROLL 6
608
#SCROLL 6.5
608
#SCROLL 7
608
#SCROLL 7.5
608,//E79
#SCROLL 1.5
#GOGOSTART
000000100100200100000200101010200100100200000200,
000000100100200100000100200200100100101010200000,
#SCROLL 3
600008
#SCROLL 4
600008,
#SCROLL 5
600000000000000000008000
#SCROLL 6
700000800000
#SCROLL 1.5
200200100100,
100000100100200100000200101010200100100200000200,
000000100100200100000100200200100100101020200000,
#SCROLL 3
600008
#SCROLL 4
600008,
#SCROLL 5
600000000000000000008000
#SCROLL 6
700000800000
#SCROLL 1.5
200200100100,
1020112010211120,
100000200000100100200000100010200010100100200000,
1020112011211121,
100000200100100100200000100010200010100010200000,
100000100100200100000200101010200100100200000200,
100000100100200100000100200200100100102020200000,
#SCROLL 3
600008
#SCROLL 4
600008,
#SCROLL 5
600000000000000000008000
#SCROLL 6
700000800000
#SCROLL 1.5
100100100100,//E95
#M
#MEASURE 4/4
#BARLINEON
0
#SCROLL 2.5
4,
#SCROLL 1
1011210110112101,
1011210110112101,
1011210110112101,
1011210110112010,
1011221110112211,
1011221110112121,
1011221110112211,
1011221110112020,
1211120211211202,
1211120211211202,
1211120211211202,
1211120211221220,
1211120211211202,
1211120211211202,
1211120211211202,
1211120211221220,
3000300210221020,
1021102010221020,
1221221211212211,
2011201021012020,
1211120211211202,
1211120211211202,
1211120211211202,
1211120211221220,
3000300210221020,
1021102010221020,
1221221211212211,
2011201020211220,//M39
#GOGOSTART
1021102112112021,
100200200100500000000000000000000008000000200000,
200200100200500000000000000000000008000000200100,
200100100500000000000000000000000000000080000000,
1021102112112021,
100200200100500000000000000000000008000000200000,
200200100200500000000000000000000008000000200100,
200100100500000000000000000000000000000008000000,
1021102112112021,
1221202112012020,
2212102212012021,
2111202112012010,
1021102112112021,
1221202112012020,
2212102212012021,
2111202112012010,
2112112221121122,
2211221122112211,
2212221222111222,//M58
#GOGOEND
,
21,
2210,
2000201020221010,
2000222020000000,
5,
,
,
000000000000000000000000000000000000000000000008,
#SCROLL 0.9
02
#SCROLL 0.85
02,
#SCROLL 0.8
#BARLINEOFF
02
#SCROLL 0.75
02,
#SCROLL 0.7
02
#SCROLL 0.65
02,
#SCROLL 0.6
02
#SCROLL 0.55
02,
#SCROLL 0.5
#BARLINEON
33,
3330,
33,
3330,
#SCROLL 2
70000008
#SCROLL 2.5
70000008,
#SCROLL 3
70000008
#SCROLL 3.5
7008
#SCROLL 4
7008,
#SCROLL 4.5
70000008
#SCROLL 5
70000008,
#SCROLL 5.5
70000008
#SCROLL 6
78
#SCROLL 6.5
78
#SCROLL 7
78
#SCROLL 7.5
78,//M79
#SCROLL 1.25
#GOGOSTART
0011210211211202,
0011210212212220,
#SCROLL 3
70000008
#SCROLL 4
70000008,
#SCROLL 5
70000008
#SCROLL 3
4000
#SCROLL 1.25
2211,
1011210211211202,
0011210212212220,
#SCROLL 3
70000008
#SCROLL 4
70000008,
#SCROLL 5
70000008
#SCROLL 3
4000
#SCROLL 1.25
2211,
1011210211211202,
1011210212212220,
1221221211212211,
2211212212212222,
1011210211211202,
1011210212212220,
#SCROLL 3
70000008
#SCROLL 4
70000008,
#SCROLL 5
70000008
#SCROLL 3
4000
#SCROLL 1.25
2220,//M95
#BRANCHEND
#SCROLL 1
#GOGOEND
22,
2270,
,
#BARLINEOFF
0800,
#END
COURSE:Hard
LEVEL:7
BALLOON:8,8,64,2
SCOREINIT:350
SCOREDIFF:110
#START
22,
2220,
20222222,
20222000,
5,
,
,
000000000000000000000000000000000000000000000008,
#MEASURE 2/4
,
#BARLINEOFF
,
#MEASURE 4/4
#BARLINEON
04,
1011100010111000,
1011100010111000,
1011100010111000,
1011100010111010,
1011100010111000,
1011100010111000,
1011100010111000,
1011100010111010,
1011200010112000,
1011200010112000,
1011200010112000,
1011200011101010,
1011200010112000,
1011200010112000,
1011200010112000,
1011200011101010,
3330,
1110,
1000101010111010,
10222000,
1011200010112000,
1011200010112000,
1011200010112000,
1011200011101010,
3330,
1110,
1000101010111010,
10222000,//39
#GOGOSTART
1010001110100011,
100000100000500000000000000000000008000000100100,
100000100000500000000000000000000008000000200200,
2007000000008000,
1010001110100011,
100000100000500000000000000000000008000000100100,
100000100000500000000000000000000008000000200200,
2007000000008000,
1010001110100011,
1010200010102011,
1010200010102011,
11201220,
1010001110100011,
1010200010102022,
2020200020202022,
22202220,
3434,
1110101011101000,
1110101011102020,//58
#GOGOEND
,
22,
2220,
20222222,
20222000,
5,
,
,
000000000000000000000000000000000000000000000008,
,
,
,
,
33,
3330,
33,
3330,
7,
,
,
00000008,//79
#GOGOSTART
0010110010102200,
0010110020202200,
0010110010102200,
0010110040002220,
0010110010102200,
0010110020202200,
0010110010102200,
0010110040002220,
1011100010112000,
1011101010112000,
1011101010111000,
2022202020000000,
0010110010102200,
0010110020202200,
0010110010102200,
0010110040002220,//95
#GOGOEND
22,
2270,
,
#BARLINEOFF
0800,
#END
COURSE:Normal
LEVEL:3
BALLOON:7,7,7,7,30,2
#START
,
,
,
,
5,
,
,
000000000000000000000000000000000000000000000008,
#MEASURE 2/4
,
#BARLINEOFF
,
#MEASURE 4/4
#BARLINEON
04,
11101010,
11101010,
11101010,
10222000,
11101010,
11101010,
11101010,
7008,
11101020,
11101020,
11101020,
10222000,
11101020,
11101020,
11101020,
7008,
3330,
1110,
10111110,
20222000,
11101020,
11101020,
11101020,
10222000,
3330,
1110,
10111110,
20222000,//39
#GOGOSTART
11102020,
500000000000000000000000000000000008000000000000,
500000000000000000000000000000000008000000000000,
7008,
11102020,
500000000000000000000000000000000008000000000000,
500000000000000000000000000000000008000000000000,
7008,
11102020,
11102020,
11102020,
11102020,
22202020,
22202020,
22202020,
22202020,
3033,
3,
3333,//58
#GOGOEND
,
22,
2220,
20222220,
20222000,
5,
,
,
000000000000000000000000000000000000000000000008,
,
,
,
,
33,
3330,
33,
3330,
9,
,
0900,
8,//79
#GOGOSTART
33,
3330,
600000000000000008000000600000000000000008000000,
600000000000000000000008000000000000000000000000,
33,
3330,
600000000000000008000000600000000000000008000000,
600000000000000000000008000000000000000000000000,
11,
1110,
10111110,
20222000,
33,
3330,
600000000000000008000000600000000000000008000000,
600000000000000000000008000000000000000000000000,//95
#GOGOEND
22,
2270,
,
#BARLINEOFF
0800,
#END
COURSE:Easy
LEVEL:2
BALLOON:5,5,5,5,25,2
#START
,
,
,
,
5,
,
,
000000000000000000000000000000000000000000000008,
#MEASURE 2/4
,
#BARLINEOFF
,
#MEASURE 4/4
#BARLINEON
,
11,
1011,
11,
12,
11,
1011,
11,
70000800,
11,
1011,
11,
12,
11,
1011,
11,
70000800,
31,
1110,
11,
2220,
11,
1011,
11,
12,
31,
1110,
11,
2220,//39
#GOGOSTART
12,
500000000000000000000000000000000008000000000000,
500000000000000000000000000000000008000000000000,
70000800,
12,
500000000000000000000000000000000008000000000000,
500000000000000000000000000000000008000000000000,
70000800,
12,
1100,
1100,
2200,
12,
1100,
1100,
2200,
33,
3,
3333,//58
#GOGOEND
,
11,
1110,
11,
2220,
5,
,
,
000000000000000000000000000000000000000000000008,
,
,
,
,
33,
3330,
33,
3330,
9,
,
0900,
8,//79
#GOGOSTART
33,
3330,
600000000000000008000000600000000000000008000000,
600000000000000000000008000000000000000000000000,
33,
3330,
600000000000000008000000600000000000000008000000,
600000000000000000000008000000000000000000000000,
11,
1110,
11,
2220,
33,
3330,
600000000000000008000000600000000000000008000000,
600000000000000000000008000000000000000000000000,//95
#GOGOEND
11,
1170,
,
#BARLINEOFF
0800,
#END