Files
ESE/07 Game Music/STEPPING WIND/STEPPING WIND.tja
T
2023-06-15 19:15:39 -05:00

358 lines
15 KiB
Plaintext
Raw Blame History

This file contains ambiguous Unicode characters
This file contains Unicode characters that might be confused with other characters. If you think that this is intentional, you can safely ignore this warning. Use the Escape button to reveal them.
//TJADB Project
TITLE:STEPPING WIND
TITLEJA:STEPPING WIND
SUBTITLE:--Kanako Kakino feat. Kumiko Watanabe/Klonoa 2: Lunatea’s Veil
SUBTITLEJA:風のクロノア2
BPM:164
WAVE:STEPPING WIND.ogg
OFFSET:-3.252
DEMOSTART:61.758
COURSE:Oni
LEVEL:3
#START
000000000000000000000000000000000000000000000000,
000000000000000000000000000000000000000000000000,
100000000000100000000000100000000000100000000000,
100000000000100000000000100000100000100000000000,
100000000000100000000000100000000000100000000000,
100000000000100000000000100000100000100000100000,
100000200000100000200000100000000000100000000000,
100000200000100000200000100000000000100000000000,
100000200000100000000000100000200000100000000000,
100000200000100000000000100000100000100000000000,
100000200000100000200000100000000000100000000000,
100000200000100000200000100000000000100000000000,
100000200000100000000000100000200000100000000000,
100000200000100000000000100000100000100000000000,
100000200000100000200000100000000000100000000000,
100000200000100000200000100000000000100000000000,
100000200000100000000000100000200000100000000000,
100000200000100000000000100000100000100000000000,
100000200000100000200000100000000000200000000000,
100000200000100000200000100000000000200000000000,
100000200000100000000000100000200000100000000000,
100000200000100000000000100000100000100000100000,
100000000000000000100000000000000000100000000000,
000000100100100000100000100000000000000000000000,
100000100000200000100000200000000000000000000000,
100000100000200000100000200000000000000000000000,
100000100000200000100000200000000000000000100000,
000000100000200000100000200000000000200000000000,
100000100000200000100000200000000000000000000000,
100000100000200000100000200000000000000000000000,
100000100000200000100000200000000000000000200000,
000000200000200000000000000000100000000000000000,
100000000000200000200000100000000000200000200000,
100000000000200000200000100000000000200000200000,
100000000000200000200000100000000000000000100000,
000000100000200000100000200000000000200000000000,
100000100000200000200000100000100000200000200000,
100000100000200000200000100000100000200000200000,
100000100000200000000000100000100000200000200000,
100100200000100100200000500000000008000000000000,
100000100000100000100000000000100000100000200000,
100000100000100000100000000000100000100000200000,
100000100000100000000000100000100000100000000000,
100000100000100000000000100100100000100000000000,
100000100000100000100000000000100000100000200000,
100000100000100000100000000000100000100000200000,
100000100000100000000000100000100000100000000000,
100000100000100000000000100100100000100000000000,
100000000000000000100000000000200000000000200000,
100000000000200000100000200000000000000000000000,
100000100000200000100000000000200000200000100000,
000000000000000000000000100000000000000000000000,
100000000000000000100000000000200000000000200000,
100000000000200000100000200000000000100000200000,
100000000000200000100000000000200000000000100000,
000000200000000000100000000000100000000000000000,
100000000000200000200000000000000000200000100000,
000000000000200000200000000000000000200000100000,
100000000000200000200000000000000000200000100000,
000000100000100000100000100000000000000000000000,
100000000000100000000000100000000000100000000000,
100000000000100000000000100000200000100000000000,
100000000000100000000000100000000000100000000000,
100000000000100000000000100000200000100000000000,
100000000000100000000000100000000000100000000000,
100000000000100000000000100000200000100000000000,
100000000000100000000000100000000000100000000000,
100000000000100000000000500000000000000008000000,
#MEASURE 6/4
#BARLINEOFF
2220,
2220,
2222,
2240,
#MEASURE 4/4
000000200000200000000000100000000000100000000000,
#BARLINEON
100000100000000000100000200000000000000000200000,
100000000000200000000000200000000000000000000000,
100000100000200000100000000000200000100000200000,
000000200000000000000000200000000000000000000000,
100000100000000000100000200000000000000000200000,
100000000000100000000000100000000000200000200000,
100000000000200000100000000000200000000000100000,
000000200000000000100000000000100000000000000000,
100000000000200000200000100000000000200000200000,
000000000000200000000000000000000000200000200000,
100000000000200000200000100000000000200000100000,
000000100000100000100000100000000000000000000000,
100000100000200000200000000000000000200000000000,
000000100000200000200000100000100000200000000000,
100000100000200000200000000000000000200000100000,
000000100000100000100000100000100000100000100000,
100100100000100100100000100000000000000000000000,
100000000000100000000000100000000000100000000000,
100000000000100000000000100000200000200000000000,
100000000000100000000000100000000000100000000000,
100000000000100000000000100000200000200000000000,
100000000000100000000000100000000000100000000000,
100000000000100000000000100000200000200000000000,
100000000000100000000000100000000000100000000000,
100000000000100000000000100000200000200000000000,
100000000000000000100000000000000000100000000000,
000000100100100000100000100000000000000000000000,
#END
COURSE:Hard
LEVEL:1
SCOREINIT:380
SCOREDIFF:80
#START
000000000000000000000000000000000000000000000000,
000000000000000000000000000000000000000000000000,
100000000000100000000000100000000000100000000000,
100000000000100000000000100000100000100000000000,
100000000000100000000000100000000000100000000000,
100000000000100000000000100000100000100000100000,
100000000000100000000000100000000000100000000000,
100000000000100000000000100000000000100000000000,
100000000000100000000000100000000000100000000000,
100000000000100000000000100000100000100000000000,
100000000000100000000000100000000000100000000000,
100000000000100000000000100000000000100000000000,
100000000000100000000000100000000000100000000000,
100000000000100000000000100000200000100000200000,
100000000000100000000000100000000000100000000000,
100000000000100000000000100000000000100000000000,
100000000000100000000000100000000000100000000000,
100000000000100000000000100000100000100000000000,
100000000000100000000000100000000000100000000000,
100000000000100000000000100000000000100000000000,
100000000000100000000000100000000000100000000000,
100000000000100000000000100000100000100000100000,
100000000000000000100000000000000000100000000000,
000000100000100000100000100000000000300000000000,
100000100000000000100000200000000000000000000000,
100000100000000000100000200000000000000000000000,
100000100000000000100000200000000000000000000000,
100000100000000000100000200000000000200000000000,
100000100000000000100000200000000000000000000000,
100000100000000000100000200000000000000000000000,
100000100000000000100000200000000000000000000000,
100000100000000000100000200000100000000000000000,
100000000000200000000000100000000000200000200000,
100000000000200000000000100000000000200000200000,
100000000000200000000000100000000000200000200000,
100000000000200000200000100000000000300000000000,
100000100000200000000000100000100000200000200000,
100000100000200000000000100000100000200000200000,
100000100000200000000000100000100000200000200000,
100000100000200000200000500000000008000000000000,
100000000000100000000000100000000000100000000000,
100000000000100000000000100000000000100000000000,
100000000000100000000000100000000000100000000000,
100000000000100000000000100000100000100000000000,
100000000000100000000000100000000000100000000000,
100000000000100000000000100000000000100000000000,
100000000000100000000000100000000000100000000000,
100000000000100000000000100000100000100000100000,
100000000000000000100000200000000000000000000000,
100000100000000000100000200000000000000000000000,
100000000000000000100000000000000000000000300000,
000000000000000000000000200000000000200000000000,
100000000000000000100000200000000000000000000000,
100000100000000000100000200000000000000000000000,
100000000000200000100000000000200000000000100000,
000000200000000000100000000000100000000000000000,
100000000000200000200000000000000000200000100000,
100000000000200000200000000000000000200000100000,
100000000000200000200000000000000000200000100000,
000000100000100000100000100000000000300000000000,
100000000000100000000000100000000000100000000000,
100000000000100000000000100000100000100000000000,
100000000000100000000000100000000000100000000000,
100000000000100000000000100000100000100000000000,
100000000000100000000000100000000000100000000000,
100000000000100000000000100000100000100000000000,
100000000000100000000000100000000000100000000000,
100000000000100000000000500000000000000008000000,
#MEASURE 6/4
002000002000,
002000002000,
002000002000,
002000100000,
#MEASURE 4/4
000000000000000000000000100000000000300000000000,
100000100000000000100000200000000000000000000000,
100000100000000000100000200000000000000000000000,
100000000000000000100000000000000000000000300000,
000000000000000000000000200000000000200000000000,
100000100000000000100000200000000000000000000000,
100000100000000000100000200000000000000000000000,
100000000000200000100000000000200000000000100000,
000000200000000000100000000000300000000000000000,
100000000000200000200000000000000000200000100000,
100000000000200000200000000000000000200000100000,
100000000000200000200000000000000000200000100000,
000000100000100000100000100000000000300000000000,
100000100000200000200000000000000000200000100000,
100000100000200000200000000000000000200000100000,
100000100000200000200000000000000000200000100000,
000000100000100000100000100000100000100000100000,
100000100000100000100000300000000000000000000000,
100000000000100000000000100000000000100000000000,
100000000000100000000000100000100000100000000000,
100000000000100000000000100000000000100000000000,
100000000000100000000000100000100000100000000000,
100000000000100000000000100000000000100000000000,
100000000000100000000000100000100000100000000000,
100000000000100000000000100000000000100000000000,
100000000000100000000000100000100000100000100000,
100000000000000000100000000000000000100000000000,
000000100000100000100000300000000000000000000000,
#END
COURSE:Normal
LEVEL:4
SCOREINIT:530
SCOREDIFF:120
#START
000000000000000000000000000000000000000000000000,
000000000000000000000000000000000000000000000000,
100000000000100000000000100000000000100000000000,
100000000000100000000000100000100000100000000000,
100000000000100000000000100000000000100000000000,
100000000000100000000000100000100000100000000000,
100000000000100000000000100000000000100000000000,
100000000000100000000000100000000000100000000000,
100000000000100000000000100000000000100000000000,
100000000000100000000000100000100000100000000000,
100000000000100000000000100000000000100000000000,
100000000000100000000000100000000000100000000000,
100000000000100000000000100000000000100000000000,
100000000000100000000000100000100000100000000000,
100000000000100000000000100000000000100000000000,
100000000000100000000000100000000000100000000000,
100000000000100000000000100000000000100000000000,
100000000000100000000000100000100000100000000000,
100000000000100000000000100000000000100000000000,
100000000000100000000000100000000000100000000000,
100000000000100000000000100000000000100000000000,
100000000000100000000000100000100000100000000000,
100000000000000000100000000000000000100000000000,
000000000000000000000000300000000000000000000000,
100000000000000000100000200000000000000000000000,
100000000000000000100000200000000000000000000000,
100000000000000000100000200000000000000000000000,
100000000000000000100000200000000000000000000000,
100000000000000000100000200000000000000000000000,
100000000000000000100000200000000000000000000000,
100000000000000000100000200000000000000000000000,
100000000000000000100000200000000000000000000000,
100000000000100000000000100000000000200000000000,
100000000000100000000000100000000000200000200000,
100000000000100000000000100000000000200000000000,
100000000000100000000000100000000000200000200000,
100000000000100000000000100000000000200000000000,
100000000000100000000000100000000000200000200000,
100000000000100000000000100000000000200000000000,
100000000000100000000000500000000000000008000000,
100000000000100000000000100000000000100000000000,
100000000000100000000000100000000000100000000000,
100000000000100000000000100000000000100000000000,
100000000000100000000000100000100000100000000000,
100000000000100000000000100000000000100000000000,
100000000000100000000000100000000000100000000000,
100000000000100000000000100000000000100000000000,
100000000000100000000000100000100000100000100000,
100000000000000000000000200000000000000000000000,
100000100000000000000000200000000000000000000000,
100000000000000000100000000000000000000000300000,
000000000000000000000000200000000000200000000000,
100000000000000000000000200000000000000000000000,
100000100000000000000000200000000000000000000000,
100000000000000000100000000000000000000000100000,
000000000000000000100000000000100000000000000000,
100000000000200000000000000000000000200000000000,
100000000000200000000000000000000000200000000000,
100000000000200000000000000000000000000000100000,
000000000000100000000000300000000000000000000000,
100000000000100000000000100000000000100000000000,
100000000000100000000000100000100000100000000000,
100000000000100000000000100000000000100000000000,
100000000000100000000000100000100000100000000000,
100000000000100000000000100000000000100000000000,
100000000000100000000000100000100000100000000000,
100000000000100000000000100000000000100000000000,
100000000000100000000000500000000000000008000000,
#MEASURE 6/4
002000002000,
002000002000,
002000002000,
002000100000,
#MEASURE 4/4
000000000000000000000000100000000000300000000000,
100000000000000000000000200000000000000000000000,
100000100000000000000000200000000000000000000000,
100000000000000000100000000000000000000000300000,
000000000000000000000000200000000000200000000000,
100000000000000000000000200000000000000000000000,
100000100000000000000000200000000000000000000000,
100000000000000000100000000000000000000000100000,
000000000000000000100000000000300000000000000000,
100000000000200000000000000000000000200000000000,
100000000000200000000000000000000000200000000000,
100000000000200000000000000000000000000000100000,
000000000000100000000000300000000000000000000000,
100000100000200000000000000000000000200000000000,
100000100000200000000000000000000000200000000000,
100000100000200000000000000000000000000000100000,
000000000000100000000000100000000000100000000000,
100000000000100000000000300000000000000000000000,
100000000000100000000000100000000000100000000000,
100000000000100000000000100000100000100000000000,
100000000000100000000000100000000000100000000000,
100000000000100000000000100000100000100000000000,
100000000000100000000000100000000000100000000000,
100000000000100000000000100000100000100000000000,
100000000000100000000000100000000000100000000000,
100000000000100000000000100000100000100000100000,
100000000000000000100000000000000000100000000000,
000000100000100000100000300000000000000000000000,
#END