Files
ESE/07 Game Music/Seize the day/Seize the day.tja
T
2023-01-17 00:45:18 -05:00

492 lines
21 KiB
Plaintext

//TJADB Project
TITLE:Seize the day
TITLEJA:Seize the day
SUBTITLE:--Falcom jdk BAND feat. SPiKA/Tokyo Xanadu
SUBTITLEJA:「東亰ザナドゥ」より
BPM:210
WAVE:Seize the day.ogg
OFFSET:-1.242
DEMOSTART:67.664
COURSE:Oni
LEVEL:9
BALLOON:5
SCOREINIT:370
SCOREDIFF:93
#START
000000000000000000000000000000000000000000000000,
000000000000000000000000000000000000000000000000,
000000000000000000000000000000000000000000000000,
000000000000000000000000000000000000000000000000,
000000000000000000000000000000000000000000000000,
000000000000000000000000000000000000000000000000,
000000000000000000000000200000200000200000200000,
100000000000100000000000200000100000200000100000,
100000200000100000000000200000000000200000000000,
200000100000000000100000200000100000000000100000,
200000100000000000100100200200100100100100100100,
200000100000100000100000200000100000100000200000,
100100100000200200100000200200200000100100200200,
200100100100200100100100200100100100200100100100,
700000000000000000800000000000300000400000000000,
100000100000100000200000000000000000100000100000,
100000200000000000000000100000100000100000200000,
200000100000200000100000100000000000200000100100,
100000100100200000100100200000200000100000100000,
200000100000100000200000000000000000200000100000,
100000200000000000100100200000100100200000100000,
200000100000100000200000000000000000200000100100,
200000100100200000100000200000200000100000100000,
100000200200200000100000200200200000100000200200,
200000100000200200200000100000200000100000200000,
100000200200200200100000200200200200100000200200,
200200100000000000000000400000400000400000400000,
100000100000200000100000000000200000100000200000,
100000100000200000200000000000100000200000200000,
100000100000200000100000000000200000100000200000,
100000100000200000100100100000100100100000100000,
100000100000200000100000000000200000100000200000,
100000100000200000200000000000100000200000200000,
100000100000200000100000000000200000100000200000,
100000100000200000100100100000100100100000100000,
100000100000200200100000200000100000100000200000,
000000100000200000200200100000100000200000200000,
100000100000200200100000200000100000100000200000,
000000100000200000200200100000100000200000200000,
100000200000200200100000200000100000200000100100,
200000200000200200100000200000100000200000100000,
100000100000100000200000100000100000200000100000,
200000100000200000100000200000000000200000000000,
100100100000100000200000000000000000100100100000,
100000200000000000000000100100100000200200200000,
200000100000200000100000200200100000200000100200,
200200100000200000100200200000200000100000100000,
100100100000100000200000000000000000100100100000,
100000200000000000000000100100100000200200200000,
200000100000200000100000200200100000200000100200,
200200100000200000100200200000200000100000100000,
200000100100100000200000100100100000200000100100,
100000200000100100100000200000000000200000000000,
200000100100100100200000100100100100200000100100,
100100200000100100100100200000000000200000000000,
200000200100100100200000200100100100200000100100,
200200200100100200100100200200100100200200100100,
200000000000000000000000000000000000000000000000,
000000200000000000000000200200200000200000000000,
#GOGOSTART
100000100000200000100200100000100000200000100100,
100000100000200000100200100000100000200000100200,
200200100000200000100000200200100200200000100000,
200200100200200000200200100000100200200000200000,
100000100000200000100200100000100000200000100100,
100000100000200000100200100000100000200000100200,
200200100000200000100000200200100200200000100000,
200000000000300000000000300000000000300000000000,
100000100000200000100200100000100000200000100200,
200200100000200000100200100000100000200000200200,
200000100000200000100200100000100000200000100200,
200200100000200000100200100000100000200000100100,
100000100000200000100100100000200000100100100000,
200000100100100000200000100000100100200000200000,
200200100100200000200200100100200000200200100100,
200000200200100100100100200000000000200000000000,
100000100000200000100200100000100000200000100100,
100000100000200000100200100000100000200000100200,
200200100000200000100000200200100200200000100000,
200200100200200000200200100000100200200000200000,
100000100200200200100000200000100200200200100000,
200000100200200200100000200000100200200200100000,
200200100000200000100000200200100200200000100000,
200000000000200000000000200000100100100000100000,
100000100000200000100200100000100000200000100200,
200200100000200000100200100000100000200000200200,
200000100000200000100200100000100000200000000000,
200000100100100000200000100100100000200000000000,
100100100100200000100100100100200000200100100100,
200000200100100100200000100100200000100100200000,
200200100100100100200200100100100100200000200000,
#GOGOEND
200000001000000010000000200000000000000000000000,
100000100000100000200000000000000000100000100000,
100000200000000000000000100000100000100000200000,
200000100000200000100000100000000000200000100100,
100000100100200000100100200000200000100000100000,
200000100000100000200000000000000000200000100000,
100000200000000000100100200000100100200000100000,
200000100000100000200000000000000000200000100100,
200000100100200000100000200000200000100000100000,
100000200200200000100000200200200000100000200200,
200000100000200200200000100000200000100000200000,
100000200200200200100000200200200200100000200200,
200200100200200200200000300000300000300000300000,
#END
COURSE:Hard
LEVEL:7
BALLOON:4,8
SCOREINIT:570
SCOREDIFF:150
#START
000000000000000000000000000000000000000000000000,
000000000000000000000000000000000000000000000000,
000000000000000000000000000000000000000000000000,
000000000000000000000000000000000000000000000000,
000000000000000000000000000000000000000000000000,
000000000000000000000000000000000000000000000000,
000000000000000000000000200000200000200000200000,
100000000000100000000000200000100000000000100000,
100000000000100000000000200000000000200000000000,
100000100000000000100000200000100000000000100000,
200000100000000000100000100100100000100100100000,
500000000000000000000000000000000000000000000000,
000000000000000000000000000000000000000000000000,
000000000000000000000000000000000000800000000000,
700000000000000800000000000000300000400000000000,
100000100000100000200000000000000000100000100000,
100000200000000000000000100000100000100000200000,
200000100000000000200000100000000000200000100000,
100000100000200000000000200000200000100000000000,
200000100000100000200000000000000000200000100000,
100000200000000000000000100000000000100000000000,
200000100000100000200000000000000000200000100000,
100000200000000000000000100000000000000000000000,
300000000000000000300000000000000000300000000000,
000000300000000000000000300000000000300000000000,
300000000000000000400000000000000000400000000000,
000000400000000000000000200000200000200000200000,
100000000000200000100000000000000000200000000000,
100000000000200000100000000000000000200000000000,
100000000000200000100000000000000000200000000000,
100000000000200000100000000000100000200000000000,
100000000000200000100000000000000000200000000000,
100000000000200000100000000000000000200000000000,
100000000000200000100000000000000000200000000000,
100000000000200000100000000000100000200000000000,
100000000000200000100000100000000000100000200000,
000000100000200000200000100000000000200000200000,
100000000000200000100000100000000000100000200000,
000000100000200000200000100000000000200000200000,
100000000000200000100000200000000000100000000000,
100000000000200000100000200000000000200000000000,
500000000000000000000000000000000000800000000000,
000000000000000000000000000000000000100000000000,
100000000000100000200000000000000000100000000000,
100000200000000000000000100000000000100000000000,
000000000000200000000000200000200000000000200000,
000000200000000000200000000000200000200000000000,
100000000000100000200000000000000000100000000000,
100000200000000000000000100000000000100000000000,
000000000000200000000000200000200000000000200000,
000000200000000000200000200000000000000000000000,
300000000000000000300000000000000000600000000000,
000000000000800000000000000000000000300000000000,
300000000000000000300000000000000000600000000000,
000000000000800000000000000000000000300000000000,
300000000000000000300000000000000000300000000000,
000000300000000000000000100100100000100100100000,
900000000000000000000000000000000000000000000000,
800000000000000000000000000000000000000000000000,
#GOGOSTART
100000100000200000100000000000100000200000100000,
000000100000200000100000000000100000200000000000,
100000100000200000100000200000000000200000000000,
100000100000200000200000100000200000000000200000,
100000100000200000100000000000100000200000100000,
000000100000200000100000000000100000200000000000,
100000100000200000100000000000100000200000100000,
200000000000200000000000100000000000100000000000,
100000000000200000100000100000000000200000000000,
100000000000200000000000100000100000200000000000,
100000000000200000100000100000000000200000000000,
100000000000200000000000100000100000200000000000,
100000100000200000100000100000200000600000000000,
000000000000000000000000000000800000000000000000,
500000800000000000500000800000000000500000800000,
000000000000000000000000000000000000000000000000,
100000100000200000100000000000100000200000100000,
000000100000200000100000000000100000200000000000,
100000100000200000100000200000000000200000000000,
100000100000200000200000100000200000000000200000,
100000100000200000100000000000100000200000100000,
000000100000200000100000000000100000200000000000,
100000100000200000100000000000100000200000100000,
200000000000200000000000100000200000000000200000,
100000000000200000100000100000000000200000000000,
100000000000200000000000100000100000200000000000,
100000000000200000100000100000000000200000000000,
100000100000200000100000100000200000100000000000,
100100100000000000100100100000000000100100100000,
000000100100100000000000300000000000300000000000,
600000000000000000000000000000000000000800000000,
#GOGOEND
000000000000000000000000000000000000000000000000,
100000100000100000200000000000000000100000100000,
100000200000000000000000100000100000100000200000,
200000100000000000200000100000000000200000100000,
100000100000200000000000200000200000100000000000,
200000100000100000200000000000000000200000100000,
100000200000000000000000100000000000100000000000,
200000100000100000200000000000000000200000100000,
100000200000000000000000100000000000000000000000,
300000000000000000300000000000000000300000000000,
000000300000000000000000300000000000300000000000,
300000000000000000400000000000000000400000000000,
000000400000000000000000300000300000300000300000,
#END
COURSE:Normal
LEVEL:5
BALLOON:4,7,10
SCOREINIT:820
SCOREDIFF:280
#START
000000000000000000000000000000000000000000000000,
000000000000000000000000000000000000000000000000,
000000000000000000000000000000000000000000000000,
000000000000000000000000000000000000000000000000,
000000000000000000000000000000000000000000000000,
000000000000000000000000000000000000000000000000,
000000000000000000000000000000000000000000000000,
300000000000000000000000000000000000000000000000,
300000000000000000000000000000000000000000000000,
300000000000000000000000000000000000000000000000,
300000000000000000000000000000000000000000000000,
500000000000000000000000000000000000000000000000,
000000000000000000000000000000000000000000000000,
000000000000000000000000000000000000800000000000,
700000000000000000000000000000800000000000000000,
100000000000000000200000000000000000100000000000,
000000200000000000000000100000000000100000000000,
200000000000200000000000100000000000100000000000,
100000000000000000000000000000000000000000000000,
100000000000000000200000000000000000100000000000,
000000200000000000000000100000000000100000000000,
100000000000000000200000000000000000100000000000,
000000200000000000000000100000000000000000000000,
300000000000000000300000000000000000300000000000,
000000300000000000000000300000000000300000000000,
300000000000000000400000000000000000400000000000,
000000400000000000000000300000000000000000000000,
100000000000000000100000000000000000000000000000,
100000000000000000100000000000000000000000000000,
100000000000000000100000000000000000000000000000,
100000000000000000000000000000000000000000000000,
200000000000000000200000000000000000000000000000,
200000000000000000200000000000000000000000000000,
200000000000000000200000000000000000000000000000,
200000000000000000000000000000000000000000000000,
100000000000000000100000000000000000100000000000,
000000000000000000000000000000000000000000000000,
100000000000000000100000000000000000100000000000,
000000000000000000000000000000000000000000000000,
100000000000000000100000000000000000100000000000,
200000000000000000200000000000000000200000000000,
500000000000000000000000000000000000800000000000,
000000000000000000000000000000000000000000000000,
100000000000100000000000000000000000100000000000,
100000000000000000000000100000000000100000000000,
000000000000000000000000000000000000000000000000,
000000000000000000000000000000000000000000000000,
100000000000100000000000000000000000100000000000,
100000000000000000000000100000000000100000000000,
000000000000000000000000000000000000000000000000,
000000000000000000000000000000000000000000000000,
300000000000000000300000000000000000600000000000,
000000000000800000000000000000000000000000000000,
300000000000000000300000000000000000600000000000,
000000000000800000000000000000000000000000000000,
300000000000000000300000000000000000300000000000,
000000300000000000000000300000000000300000000000,
900000000000000000000000000000000000000000000000,
800000000000000000000000000000000000000000000000,
#GOGOSTART
000000000000100000000000000000000000100000000000,
000000000000100000000000000000000000100000000000,
000000000000100000000000000000000000100000000000,
000000000000100000000000100000000000100000000000,
000000000000100000000000000000000000100000000000,
000000000000100000000000000000000000100000000000,
000000000000100000000000000000000000100000000000,
000000000000100000000000100000000000100000000000,
000000000000200000000000200000000000200000000000,
000000000000200000000000200000000000200000000000,
000000000000100000000000100000000000100000000000,
000000000000100000000000100000000000100000000000,
100000000000000000300000000000000000600000000000,
000000000000000000000000000000800000000000000000,
500000800000000000500000800000000000500000800000,
000000000000000000000000000000000000000000000000,
000000000000100000000000000000000000100000000000,
000000000000100000000000000000000000100000000000,
000000000000100000000000000000000000100000000000,
000000000000100000000000100000000000100000000000,
700000000000000000000000000000000000000000000000,
000000000000000000000000000000000000000000800000,
000000000000100000000000000000000000100000000000,
000000000000100000000000100000000000100000000000,
000000000000200000000000200000000000200000000000,
000000000000200000000000200000000000200000000000,
000000000000100000000000100000000000100000000000,
500000000000000000000000800000000000000000000000,
300000000000000000300000000000000000300000000000,
000000300000000000000000300000000000300000000000,
600000000000000000000000000000000000800000000000,
#GOGOEND
000000000000000000000000000000000000000000000000,
100000000000000000200000000000000000100000000000,
000000200000000000000000100000000000100000000000,
200000000000200000000000100000000000100000000000,
100000000000000000000000000000000000000000000000,
100000000000000000200000000000000000100000000000,
000000200000000000000000100000000000100000000000,
100000000000000000200000000000000000100000000000,
000000200000000000000000100000000000000000000000,
300000000000000000300000000000000000300000000000,
000000300000000000000000300000000000300000000000,
400000000000000000400000000000000000400000000000,
000000400000000000000000300000300000300000300000,
#END
COURSE:Easy
LEVEL:4
BALLOON:3,5,10
SCOREINIT:590
SCOREDIFF:198
#START
000000000000000000000000000000000000000000000000,
000000000000000000000000000000000000000000000000,
000000000000000000000000000000000000000000000000,
000000000000000000000000000000000000000000000000,
000000000000000000000000000000000000000000000000,
000000000000000000000000000000000000000000000000,
000000000000000000000000000000000000000000000000,
300000000000000000000000000000000000000000000000,
300000000000000000000000000000000000000000000000,
300000000000000000000000000000000000000000000000,
300000000000000000000000000000000000000000000000,
500000000000000000000000000000000000000000000000,
000000000000000000000000000000000000000000000000,
000000000000000000000000000000000000800000000000,
700000000000000000000000000000800000000000000000,
100000000000000000000000000000000000100000000000,
000000000000000000000000100000000000100000000000,
500000000000000000000000000000000000000000800000,
000000000000000000000000000000000000000000000000,
100000000000000000000000000000000000100000000000,
000000000000000000000000100000000000100000000000,
100000000000000000000000000000000000100000000000,
000000000000000000000000100000000000000000000000,
300000000000000000300000000000000000300000000000,
000000300000000000000000300000000000000000000000,
300000000000000000300000000000000000300000000000,
000000300000000000000000300000000000000000000000,
100000000000000000100000000000000000000000000000,
100000000000000000100000000000000000000000000000,
100000000000000000100000000000000000000000000000,
100000000000000000000000000000000000000000000000,
200000000000000000200000000000000000000000000000,
200000000000000000200000000000000000000000000000,
200000000000000000200000000000000000000000000000,
200000000000000000000000000000000000000000000000,
100000000000000000100000000000000000100000000000,
000000000000000000000000000000000000000000000000,
100000000000000000100000000000000000100000000000,
000000000000000000000000000000000000000000000000,
100000000000000000100000000000000000000000000000,
100000000000000000100000000000000000000000000000,
500000000000000000000000000000000000800000000000,
000000000000000000000000000000000000000000000000,
100000000000100000000000000000000000100000000000,
100000000000000000000000100000000000100000000000,
000000000000000000000000000000000000000000000000,
000000000000000000000000000000000000000000000000,
100000000000100000000000000000000000100000000000,
100000000000000000000000100000000000100000000000,
000000000000000000000000000000000000000000000000,
000000000000000000000000000000000000000000000000,
300000000000000000300000000000000000600000000000,
000000000000800000000000000000000000000000000000,
300000000000000000300000000000000000600000000000,
000000000000800000000000000000000000000000000000,
300000000000000000300000000000000000300000000000,
000000300000000000000000300000000000000000000000,
900000000000000000000000000000000000000000000000,
800000000000000000000000000000000000000000000000,
#GOGOSTART
000000000000100000000000000000000000100000000000,
000000000000100000000000000000000000100000000000,
000000000000100000000000000000000000100000000000,
000000000000100000000000100000000000100000000000,
000000000000100000000000000000000000100000000000,
000000000000100000000000000000000000100000000000,
000000000000100000000000000000000000100000000000,
000000000000100000000000100000000000100000000000,
000000000000200000000000000000000000200000000000,
000000000000200000000000000000000000200000000000,
000000000000100000000000000000000000100000000000,
000000000000100000000000100000000000100000000000,
100000000000000000300000000000000000600000000000,
000000000000000000000000000000800000000000000000,
500000800000000000500000800000000000500000800000,
000000000000000000000000000000000000000000000000,
000000000000100000000000000000000000100000000000,
000000000000100000000000000000000000100000000000,
000000000000100000000000000000000000100000000000,
000000000000100000000000100000000000100000000000,
700000000000000000000000000000000000000000000000,
000000000000000000000000000000000000000000800000,
000000000000100000000000000000000000100000000000,
000000000000100000000000100000000000100000000000,
000000000000200000000000000000000000200000000000,
000000000000200000000000000000000000200000000000,
000000000000100000000000000000000000100000000000,
500000000000000000000000800000000000000000000000,
300000000000000000300000000000000000300000000000,
000000300000000000000000300000000000300000000000,
600000000000000000000000000000000000800000000000,
#GOGOEND
000000000000000000000000000000000000000000000000,
100000000000000000000000000000000000100000000000,
000000000000000000000000100000000000100000000000,
500000000000000000000000000000000000000000800000,
000000000000000000000000000000000000000000000000,
100000000000000000000000000000000000100000000000,
000000000000000000000000100000000000100000000000,
100000000000000000000000000000000000100000000000,
000000000000000000000000100000000000000000000000,
300000000000000000300000000000000000300000000000,
000000300000000000000000300000000000000000000000,
300000000000000000300000000000000000300000000000,
000000300000000000000000300000300000300000300000,
#END