Files
ESE/07 Game Music/Sengoku BASARA BGM Medley/Sengoku BASARA BGM Medley.tja
T
2023-06-15 19:15:39 -05:00

505 lines
20 KiB
Plaintext

//TJADB Project
TITLE:Sengoku BASARA BGM Medley
TITLEJA:戦国BASARA BGMメドレー
SUBTITLE:--Shika@ni-san/Sengoku BASARA
BPM:208
WAVE:Sengoku BASARA BGM Medley.ogg
OFFSET:-1.427
DEMOSTART:55.946
COURSE:Oni
LEVEL:9
BALLOON:2
SCOREINIT:350
SCOREDIFF:85
#START
300000100100100000300000000000000000000000000000,
000000000000000000000000000000000000000000000000,
000000000000000000000000000000000000000000000000,
000000000000000000000000000000000000000000000000,
300000100100100000300000000000000000000000000000,
000000000000000000000000500000000000000008000000,
300000000000000000000000000000000000000000100100,
100000000000000000200000000000000000200000000000,
#GOGOSTART
100100100000200000100000000000100100200000100000,
100000200000000000100100200000100000200000100100,
100000100100200000100000100000100100200000100000,
100000100100200000100000000000100000200000100000,
100100100000200000100000000000100100200000100000,
100000200000000000100100200000100000200000100100,
100000100100200000100000100000100100200000100000,
100100100000200000200000100000100000200000100000,
100100100000200000100000000000100100200000100000,
100000200000000000100100200000100000200000100100,
100000100100200000100000100000100100200000100100,
100000100100200000100000100000100000200000100100,
100100100000200000100000000000100100200000100000,
100000200000000000100100200000100000200000100100,
100000100100200000100000100000100100200000100000,
#MEASURE 7/8
300000000000200000200000200000000000100000000000200000000000100000000000200000000000,
#GOGOEND
#MEASURE 9/8
#BPMCHANGE 170
#SCROLL 1.22
300000000000000000000000
#SCROLL 1
100000000000100000000000000000000000100000000000200000000000200000000000000000000000,
#MEASURE 4/4
300000000200000000200000100100100000200000100000,
100000000200000000200000100100100000200000200000,
100000200100000000200000100000200100000000200000,
500000000000000000000008000000100000200000200200,
100000200100000000200000100100100000200000200000,
100000200100000000200000100100100000200000200000,
100000200100000100200000100000200100000100200000,
100000100000200200100000100000100000200200100000,
100000100000100200100000100200100000100200200000,
100000100200000200100000200000000000200200100000,
100000100200000200100000200000000000200200200000,
100000100200000200100000200000200100000100200000,
100000100200000200100100200000300000000000000000,
100000200200200000100000100100100000200200200000,
100000200200200000100000100100100000200200200000,
100000100000200200100000100000100000200200100000,
100000100000200200100200100000100000200200100200,
100000001000000010000000100000101010200000000000,
#GOGOSTART
300000100100200000100100100000100100200000100100,
100000100100200000100100200100000100200000200200,
100000100100200000100100100000100100200000100100,
100000100100200000100100200100100100200000200000,
300000100100200000100100100000100100200000100100,
100000100100200000100100200100000100200000200200,
100000100100200000100000200000100100200200100000,
200000100100200100100100200100100100200100100000,
200020002000100010001000200010002000700000800000,
#GOGOEND
#BPMCHANGE 172
100100100100200000100000000100000100200000100000,
100100100100200000100000000100100100200000100000,
100100100100200000100000000100000100200000100100,
200100100100200000100100200100100100200000100000,
100100100100200000100000000100000100200000100000,
100100100100200000100000000100100100200000100000,
100100100100200000100000000100000100200000100100,
200000100100200000100100200100100100200000100000,
100000200200100200200000100000200200100200200000,
100000200200100200200000100000200200100200200200,
100000200200100200200000100000200200100200200000,
100200200200100200200200100200100100200100100000,
100000100100200000100100100000100100200000100100,
100000100100200000100100100000100100200100100200,
100000100000100200200200100000100000100200200200,
100100200200200200100100200200100200100100200100,
100000100000200200200200100000100000200200200200,
100000100000200200200200100200000100200000200200,
100000100000200200200200100000100000200200200200,
100000100000200200200200100000200100200000200200,
100000100000200200200200100000100000200200200200,
100000100000200200200200100200000100200000200200,
100000100000200200200200100000100000200200200200,
100000100000200200200200100200200100200200200100,
100000100100200200200200100000100100200200200200,
100000100100200200200200100000100100200000200200,
100000100100200200200200100000100100200200200200,
100000100100200200200200100200000100200000200200,
100000100100200200200200100000100100200200200200,
100000100100200200200200100000100100200000200200,
100000100100200200200200100000100100200200200200,
100000100100200200200200100200200100200000200000,
#GOGOSTART
300000000000300000000000300000202020200000100000,
000000100000200200100000200200200100200000000000,
300000000000300000000000300000202020200000100000,
000000100000200200100000100200200200100000200000,
300000000000300000000000300000202020200000100000,
000000100000200200100000200200200100200000000000,
300000000000300000000000300000202020200000100000,
000000100000200200100000100200200200100000200000,
202020200000100000200000100100100000202020200000,
100000200000100100100000202020200000100000200000,
#GOGOEND
300000300000000000300000000000000000000000000000,
#END
COURSE:Hard
LEVEL:7
SCOREINIT:420
SCOREDIFF:113
#START
300000100000100000300000000000000000000000000000,
000000000000000000000000000000000000000000000000,
000000000000000000000000000000000000000000000000,
000000000000000000000000000000000000000000000000,
300000100000100000300000000000000000000000000000,
000000000000000000000000000000000000000000000000,
300000000000000000000000000000000000000000100100,
100000000000000000200000000000000000200000000000,
#GOGOSTART
100000000000200000100000000000100000200000000000,
100000200000000000200000100000000000200000000000,
100000000000200000100000200000100000200000000000,
100000000000200000100000000000100000200000000000,
100000000000200000100000000000100000200000000000,
100000200000000000200000100000000000200000000000,
100000000000200000100000200000100000200000000000,
300000000000000000300000000000000000300000000000,
300000000000200000100000000000100000200000000000,
100000200000000000200000100000000000200000000000,
100000000000200000100000200000100000200000000000,
100000000000200000100000000000100000200000000000,
100000000000200000100000000000100000200000000000,
100000200000000000200000100000000000200000000000,
100000000000200000100000200000100000200000000000,
#MEASURE 7/8
100000000000100000000000100000000000200000000000200000000000200000000000100000000000,
#GOGOEND
#SCROLL 1.22
#BPMCHANGE 170
#MEASURE 9/8
3,
#SCROLL 1
#MEASURE 4/4
100000000200000000200000100000000000200000000000,
100000000200000000200000100000100000200000000000,
100000000200000000200000100000000200000000200000,
500000000000000000000000000000000000000800000000,
100000000200000000200000100000000000200000000000,
100000000200000000200000100000000000200000000000,
100000000200000000200000100000000200000000200000,
100000100000200000000000100000100000200000000000,
100000100000100100100000100100100000100000000000,
100000000000000000100000200000100000200000000000,
100000000000000000100000200000000200000000200000,
100000000000000000100000200000000200000000200000,
500000000000000000000000000000000000000800000000,
100000200200200000100000000000100000200000000000,
100000200200200000100000000000100000200000000000,
100000100000100100100000100000100000100100100000,
100000000000200000100000000000100000200000000000,
100000001000000010000000100000100100200000000000,
#GOGOSTART
100000100100100000100000100100100000100000000000,
100000100100100000100000100100100000100000000000,
100000100100100000100000100100100000100000000000,
200000100100100000200000100100100000200000000000,
100000100100100000100000100100100000100000000000,
100000100100100000100000100100100000100000000000,
100000100100100000100000100100100000100000000000,
200000100100100000200000100100100000200000000000,
100010001000100010001000100010001000100000000000,
#BPMCHANGE 172
#GOGOEND
100000000000100000000000100000100100100000100000,
100000000000100000000000100000100100100000100000,
500000000000000800000000500000000000000800000000,
100000100100100000100000100100100000200000000000,
100000000000100000000000100000100100100000100000,
100000000000100000000000100000100100100000100000,
500000000000000800000000500000000000000800000000,
100000100100100000100000100100100000200000000000,
100000100100100000100000200000100100100000100000,
100000100100100000100000200000000000200000000000,
100000100100100000100000200000100100100000000000,
300000000000400000000000300000000000400000000000,
100000100100100000100000100000100000200000000000,
100000100100100000100000100000100000200000000000,
100000100100100000100000100000100100100000100000,
100000100100100000100000100100100000200000000000,
100000100000000000100000100000100100100000100000,
100000100000000000100000100000100100100000100000,
100000100000000000100000100000100000000000100000,
100000200000100000200000100000100100100000000000,
100000100000000000100000100000100100100000100000,
100000100000000000100000100000100100100000100000,
100000100000000000100000100000100000000000100000,
100000200000100000200000100000100100100000000000,
100000000000100000000000100000100100100000100000,
100000000000100000000000100100100000100000000000,
100000000000100000000000100000100100100000000000,
300000000000400000000000300000000000400000000000,
100000100100100000100000100000100000200000000000,
100000100100100000100000100000100000200000000000,
100000100100100000100000100000100100100000100000,
100000100100100000100000100100100000200000000000,
#GOGOSTART
300000000000300000000000300000000000000000100000,
000000100000100100100000100100100000100000000000,
300000000000300000000000300000000000000000200000,
000000200000200200200000200200200000200000000000,
300000000000300000000000300000000000000000100000,
000000100000100100100000100100100000100000000000,
300000000000300000000000300000000000000000200000,
000000200000200200200000200200200000200000000000,
200200200000100000100000200000200000200200200000,
100000100000200000200000200200200000100000100000,
#GOGOEND
300000300000000000300000000000000000000000000000,
#END
COURSE:Normal
LEVEL:6
SCOREINIT:510
SCOREDIFF:150
#START
300000000000000000000000000000000000000000000000,
000000000000000000000000000000000000000000000000,
000000000000000000000000000000000000000000000000,
000000000000000000000000000000000000000000000000,
300000000000000000000000000000000000000000000000,
000000000000000000000000000000000000000000000000,
300000000000000000000000000000000000000000000000,
300000000000000000000000000000000000000000000000,
#GOGOSTART
100000000000000000000000100000000000000000000000,
100000000000100000000000000000000000100000000000,
200000000000000000000000200000000000000000000000,
200000000000200000000000000000000000200000000000,
100000000000000000000000100000000000000000000000,
100000000000100000000000000000000000100000000000,
200000000000000000000000200000000000000000000000,
300000000000000000300000000000000000300000000000,
300000000000000000000000100000000000000000000000,
100000000000100000000000000000000000100000000000,
200000000000000000000000200000000000000000000000,
200000000000200000000000000000000000200000000000,
100000000000000000000000100000000000000000000000,
100000000000100000000000000000000000100000000000,
200000000000000000000000200000000000000000000000,
#MEASURE 7/8
300000000000000000000000000000000000000000000000300000000000000000000000000000000000,
#GOGOEND
#MEASURE 9/8
#SCROLL 1.223
#BPMCHANGE 170
3,
#MEASURE 4/4
#SCROLL 1
300000000000100000000000100000000000100000100000,
100000000000100000000000100000000000100000100000,
100000000000200000000000100000000000200000000000,
500000000000000000000000000000000000800000000000,
100000000000100000000000100000000000100000100000,
100000000000100000000000100000000000000000000000,
300000000300000000300000300000000300000000300000,
600000000000000000000000000000000000000000000000,
000000000000000000000000000000000000800000000000,
100000000000000000000000000000000000200000000000,
100000000000000000000000000000000000200000000000,
100000000000000000000000000000000000200000000000,
100000000000000000000000000000000000000000000000,
100000000000200000000000100000100000100000000000,
100000000000200000000000100000100000100000000000,
500000000000000000000000000000800000000000000000,
600000000000000000000000000000800000000000000000,
300000000300000003000000300000000000400000000000,
#GOGOSTART
100000000000200000000000100000100000200000000000,
100000000000100000100000100000000000000000000000,
100000000000200000000000100000100000200000000000,
300000000000300000000000300000000000000000000000,
100000000000200000000000100000100000200000000000,
100000000000200000000000100000100000200000000000,
100000000000200000000000100000100000200000000000,
300000000000300000000000300000000000000000000000,
600000000000000000000000000000000000800000000000,
#GOGOEND
#BPMCHANGE 172
100000100000000000000000100000100000000000000000,
100000100000000000000000100000100000200000000000,
100000100000000000000000100000100000000000000000,
100000000000100000000000100000100000100000000000,
100000100000000000000000100000100000000000000000,
100000100000000000000000100000100000200000000000,
100000100000000000000000100000100000000000000000,
100000000000100000000000100000100000100000000000,
300000000000100000000000100000100000100000000000,
100000000000100000000000100000100000100000000000,
100000000000100000000000100000100000200000000000,
100000000000200000000000100000000000200000000000,
100000000000100000000000200000200000200000000000,
100000000000100000000000200000200000200000000000,
100000000000000000000000100000000000000000000000,
100000000000100000000000100000100000100000000000,
300000000000100000000000100000100000100000000000,
100000000000100000000000100000100000200000000000,
100000100000000000000000100000100000000000000000,
100000000000100000000000100000100000100000000000,
100000000000100000000000100000100000100000000000,
100000000000100000000000100000100000200000000000,
100000100000000000000000100000100000000000000000,
100000000000100000000000100000100000100000000000,
100000000000200000000000100000000000200000200000,
100000000000200000000000100000000000000000000000,
100000000000200000000000100000000000200000200000,
100000000000200000000000100000000000200000000000,
100000000000000000000000100000100000000000000000,
100000000000000000000000100000100000000000000000,
100000100000000000000000100000100000000000000000,
100000100000100000100000100000100000100000000000,
#GOGOSTART
400000000000400000000000400000000000000000300000,
000000300000300000000000400000000000400000000000,
400000000000400000000000400000000000000000300000,
000000300000300000000000400000000000400000000000,
400000000000400000000000400000000000000000300000,
000000300000300000000000400000000000400000000000,
400000000000400000000000400000000000000000300000,
000000300000300000000000400000000000400000000000,
100000100000100000000000200000000000100000100000,
100000000000200000000000100000100000100000000000,
#GOGOEND
300000300000000000300000000000000000000000000000,
#END
COURSE:Easy
LEVEL:4
SCOREINIT:510
SCOREDIFF:178
#START
300000000000000000000000000000000000000000000000,
000000000000000000000000000000000000000000000000,
000000000000000000000000000000000000000000000000,
000000000000000000000000000000000000000000000000,
300000000000000000000000000000000000000000000000,
000000000000000000000000000000000000000000000000,
300000000000000000000000000000000000000000000000,
300000000000000000000000000000000000000000000000,
#GOGOSTART
100000000000000000000000100000000000000000000000,
100000000000000000000000100000000000100000000000,
100000000000000000000000100000000000000000000000,
100000000000000000000000100000000000100000000000,
100000000000000000000000100000000000000000000000,
100000000000000000000000100000000000100000000000,
100000000000000000000000100000000000000000000000,
300000000000000000000000000000000000000000000000,
100000000000000000000000100000000000000000000000,
100000000000100000000000100000000000000000000000,
100000000000000000000000100000000000000000000000,
100000000000100000000000100000000000000000000000,
100000000000000000000000100000000000000000000000,
100000000000100000000000100000000000000000000000,
100000000000000000000000100000000000000000000000,
#MEASURE 7/8
3,
#GOGOEND
#MEASURE 9/8
#SCROLL 1.223
#BPMCHANGE 170
3,
#MEASURE 4/4
#SCROLL 1
300000000000000000000000200000000000000000000000,
100000000000100000000000100000000000000000000000,
100000000000000000000000200000000000000000000000,
100000000000100000000000100000000000000000000000,
100000000000000000000000200000000000000000000000,
100000000000100000000000000000000000000000000000,
300000000000000000000000300000000000000000000000,
600000000000000000000000000000000000000000000000,
000000000000000000000000800000000000000000000000,
100000000000000000000000000000000000100000000000,
100000000000000000000000000000000000100000000000,
100000000000000000000000000000000000100000000000,
100000000000000000000000000000000000000000000000,
100000000000100000000000000000000000100000000000,
100000000000100000000000000000000000100000000000,
500000000000000000000000800000000000000000000000,
600000000000000000000000800000000000000000000000,
300000000000000000000000000000000000400000000000,
#GOGOSTART
100000000000000000000000200000000000200000000000,
100000000000000000000000200000000000200000000000,
100000000000000000000000200000000000200000000000,
300000000000000000000000300000000000000000000000,
100000000000000000000000200000000000200000000000,
100000000000000000000000200000000000200000000000,
100000000000000000000000200000000000200000000000,
300000000000300000000000600000000000000000000000,
000000000000000000800000000000000000000000000000,
#GOGOEND
#BPMCHANGE 172
100000000000000000000000200000000000000000000000,
100000000000100000000000000000000000000000000000,
100000000000000000000000200000000000000000000000,
100000000000100000000000000000000000000000000000,
100000000000000000000000200000000000000000000000,
100000000000100000000000000000000000000000000000,
100000000000000000000000500000000000000000000000,
000000000000000000000000800000000000000000000000,
100000000000000000000000200000000000000000000000,
100000000000000000000000200000000000200000000000,
100000000000000000000000200000000000000000000000,
100000000000100000000000100000000000100000000000,
100000000000000000000000200000000000000000000000,
100000000000000000000000200000000000200000000000,
100000000000000000000000100000000000000000000000,
100000000000100000000000100000000000100000000000,
300000000000000000000000100000000000100000000000,
100000000000000000000000100000000000100000000000,
100000000000000000000000100000000000000000000000,
100000000000000000000000000000000000000000000000,
300000000000000000000000100000000000100000000000,
100000000000000000000000100000000000100000000000,
100000000000000000000000100000000000000000000000,
100000000000000000000000000000000000000000000000,
100000000000000000000000200000000000000000000000,
100000000000000000000000200000000000200000000000,
100000000000000000000000200000000000000000000000,
100000000000000000000000200000000000200000000000,
100000000000000000000000100000000000000000000000,
100000000000000000000000100000000000000000000000,
500000000000000000000000000000000000000000000000,
000000000000000000000000800000000000000000000000,
#GOGOSTART
200000000000200000000000200000000000000000000000,
000000000000000000000000100000000000100000000000,
200000000000200000000000200000000000000000000000,
000000000000000000000000100000000000100000000000,
200000000000200000000000200000000000000000000000,
000000000000000000000000100000000000100000000000,
200000000000200000000000200000000000000000000000,
100000000000000000000000100000000000100000000000,
400000000000400000000000400000000000000000000000,
400000000000400000000000400000000000000000000000,
#GOGOEND
300000000000000000300000000000000000000000000000,
#END