Files
ESE/07 Game Music/Smile Taisou/Smile Taisou.tja
T
2023-06-15 19:15:39 -05:00

317 lines
12 KiB
Plaintext
Raw Blame History

This file contains ambiguous Unicode characters
This file contains Unicode characters that might be confused with other characters. If you think that this is intentional, you can safely ignore this warning. Use the Escape button to reveal them.
//TJADB Project
TITLE:Smile Taisou
TITLEJA:スマイル体操
SUBTITLE:--Makoto Miyazaki feat. Mayako Nigo/THE iDOLM@STER MUST SONGS: Blue Album
BPM:145
WAVE:Smile Taisou.ogg
OFFSET:-1.912
DEMOSTART:44.049
COURSE:Oni
LEVEL:8
SCOREINIT:580
SCOREDIFF:155
NOTESDESIGNER3:Kuboken
#START
000000000000000000000000000000000000000000000000,
000000000000000000000000000000000000000000000000,
000000000000000000000000000000000000000000000000,
200000100100000000200000200100200100200000202020,
#GOGOSTART
100000200000100000200200100000200000100000200200,
100000200000100000000000200200000000200200100200,
100000200000100000200200100000200000100000200200,
200000100000100000202020100200100000200200100200,
#GOGOEND
100000100000200000100000100000000100200000100100,
100000100000200000100000100000100200000200100000,
100000100000200000100000100000100000200000100100,
100000100000200000100000300000000000300000000000,
100000100000200000100000100000000100200000100100,
100000100000200000100000300000000000300000000000,
100000100000200000100000100000200200100000100000,
200000100000200000100100200000200200200200200200,
100000100000000000100000100000100000400000100000,
100000100000000000100000100000100000400000100100,
100000100000000000100000100000100000400000100000,
100000100000000000100000100000100000400000100100,
100000100000000000100000100000100000400000100000,
100000100000000000100000200100200100200000202020,
100000100000400000100100100000100000400000100100,
200000100000200000100000200000100000200000100000,
200000200100200000300000000000000000000000000000,
#GOGOSTART
100000100100100000100100200000100100200000100100,
200000100100200000100100200000200100200000200200,
100000200200100000200200100000200200100000000000,
300000000000400000000000300000000000400000000000,
100000100100100000100100200000100100200000100100,
200000100100200000100100200000200100200000200200,
100000200200100000200200100000200200100000300000,
000000300000300000200200100000400000400000200200,
100000200000100000200000100000200000100000200000,
100000100000200000100000100100200000400000200200,
100000000000100000100000000000100000200000100000,
100000200000200000100000100200100000200200202020,
100000100100100000100100200000100100200000100100,
200000100100200000100100200000200100200000200200,
100000200200100000200200100000200200100000000000,
300000000000400000000000300000000000400000000000,
100000100100200000200200100000100100200000200200,
100000100000200000100000100100200000400000200200,
100000100000200000100000100000200000100000200000,
200000100000200000200000100200100000100200200200,
100000100000200000100000100000200000100000200000,
200000100000200000200000100200100000100200102020,
200000100000200000100000200000100000200000100000,
200000100000200000100000100200100100200000200200,
100000000000100000200000100000000000100000200000,
100000200000100000200000100200200200100000200000,
100000000000100000200000100000000000100000200000,
100000200000100000101010200100200100200100200100,
100000000000100000200000100000000000100000200000,
100000200000100000200000100200000200100000200200,
100000000000100000200000100000000000100000100000,
200200200000100000202020100200100000400000300000,
#GOGOEND
#END
COURSE:Hard
LEVEL:6
BALLOON:9,9,9,9,9,9
SCOREINIT:740
SCOREDIFF:213
#START
000000000000000000000000000000000000000000000000,
000000000000000000000000000000000000000000000000,
000000000000000000000000000000000000000000000000,
000000000000000000000000000000000000000000000000,
#GOGOSTART
100000000000100000200000100000000000100000200000,
100000000000000000000000400000000000400000000000,
100000000000100000200000100000000000100000200000,
100000000000000000000000300000000000300000000000,
#GOGOEND
000000000000200000000000000000000000200000000000,
000000000000200000000000100000100100000000000000,
000000000000200000000000000000000000200000000000,
000000000000200000000000300000000000300000000000,
000000000000200000000000000000000000200000000000,
000000000000200000000000300000000000300000000000,
000000000000200000000000100000100000200000200000,
300000000000300000000000300000000000000000000000,
100000100000000000100000100000100000400000100000,
100000100000000000100000100000100000400000100000,
100000100000000000100000100000100000400000100000,
100000100000000000100000100000100000400000000000,
100000100000000000100000100000100000400000100000,
100000100000000000100000100000100000400000000000,
100000100000400000000000100000100000400000000000,
300000000000300000000000300000000000300000000000,
300000300000300000300000000000000000000000000000,
#GOGOSTART
100000000000100000000000100000100100100000000000,
100000200000100000200000100000100100100000000000,
100000200000100000200000100000100100100000000000,
400000000000400000000000400000000000400000000000,
100000000000100000000000100000100100100000000000,
100000200000100000200000100000100100100000000000,
100000200000100000200000100000000000300000300000,
000000300000300000000000000000400000400000000000,
300000000000300000000000300000000000300000000000,
300000000000300000300000000000000000400000000000,
700000000000000000000000000800000000000000700000,
000000000000000000000800000000000000000000000000,
100000000000100000000000100000100100100000000000,
100000200000100000200000100000100100100000000000,
100000200000100000200000100000100100100000000000,
400000000000400000000000400000000000400000000000,
300000000000300000000000300000000000300000000000,
300000000000300000300000000000000000400000000000,
700000000000000000000000000800000000000000700000,
000000000000000000000800000000000000000000000000,
700000000000000000000000000800000000000000700000,
000000000000000000000800000000000000000000000000,
200000100000200000100000200000100000200000100000,
200000100000200000100000100100100000400000000000,
100000000000100000200000100000000000100000200000,
100000200000100000000000400000000000400000000000,
100000000000100000200000100000000000100000200000,
100000200000100000000000300000000000300000000000,
100000000000100000200000100000000000100000200000,
100000200000100000000000400000000000400000000000,
100000000000100000200000100000000000100000200000,
100000200000100000000000300000000000300000300000,
#GOGOEND
#END
COURSE:Normal
LEVEL:5
BALLOON:7,7,7,7,7,7
SCOREINIT:750
SCOREDIFF:265
#START
000000000000000000000000000000000000000000000000,
000000000000000000000000000000000000000000000000,
000000000000000000000000000000000000000000000000,
000000000000000000000000000000000000000000000000,
#GOGOSTART
100000000000100000000000100000000000100000000000,
100000000000000000000000400000000000400000000000,
100000000000100000000000100000000000100000000000,
100000000000000000000000300000000000300000000000,
#GOGOEND
000000000000200000000000000000000000200000000000,
000000000000200000000000200000000000200000000000,
000000000000200000000000000000000000200000000000,
000000000000200000000000300000000000300000000000,
000000000000200000000000000000000000200000000000,
000000000000200000000000300000000000300000000000,
000000000000200000000000000000000000200000000000,
300000000000300000000000300000000000000000000000,
500000000000000000000080000000000000400000000000,
500000000000000000000080000000000000400000000000,
500000000000000000000080000000000000400000000000,
500000000000000000000080000000000000400000000000,
500000000000000000000080000000000000400000000000,
500000000000000000000080000000000000400000000000,
300000000000400000000000300000000000400000000000,
300000000000300000000000300000000000300000000000,
300000300000300000300000000000000000000000000000,
#GOGOSTART
100000000000100000000000100000100000100000000000,
100000000000100000000000100000100000100000000000,
100000000000100000000000100000100000100000000000,
400000000000400000000000400000000000400000000000,
100000000000100000000000100000100000100000000000,
100000000000100000000000100000100000100000000000,
100000000000100000000000100000000000300000300000,
000000300000300000000000000000400000400000000000,
300000000000300000000000300000000000300000000000,
300000000000300000300000000000000000400000000000,
700000000000000000000000800000000000000000700000,
000000000000000000800000000000000000000000000000,
100000000000100000000000100000100000100000000000,
100000000000100000000000100000100000100000000000,
100000000000100000000000100000100000100000000000,
400000000000400000000000400000000000400000000000,
300000000000300000000000300000000000300000000000,
300000000000300000300000000000000000400000000000,
700000000000000000000000800000000000000000700000,
000000000000000000800000000000000000000000000000,
700000000000000000000000800000000000000000700000,
000000000000000000800000000000000000000000000000,
100000000000100000000000100000000000100000000000,
500000000000000000000080000000000000300000000000,
100000000000100000000000100000000000100000100000,
100000000000000000000000400000000000400000000000,
100000000000100000000000100000000000100000100000,
100000000000000000000000300000000000300000000000,
100000000000100000000000100000000000100000100000,
100000000000000000000000400000000000400000000000,
100000000000100000000000100000000000100000100000,
100000000000000000000000300000000000300000300000,
#GOGOEND
#END
COURSE:Easy
LEVEL:3
BALLOON:5,5,5,5,5,5
SCOREINIT:620
SCOREDIFF:263
#START
000000000000000000000000000000000000000000000000,
000000000000000000000000000000000000000000000000,
000000000000000000000000000000000000000000000000,
000000000000000000000000000000000000000000000000,
#GOGOSTART
100000000000000000000000100000000000000000000000,
100000000000000000000000400000000000400000000000,
100000000000000000000000100000000000000000000000,
100000000000000000000000300000000000300000000000,
#GOGOEND
000000000000200000000000000000000000200000000000,
000000000000200000000000200000000000200000000000,
000000000000200000000000000000000000200000000000,
000000000000200000000000300000000000300000000000,
000000000000200000000000000000000000200000000000,
000000000000200000000000300000000000300000000000,
000000000000200000000000000000000000200000000000,
100000000000100000000000100000000000000000000000,
500000000000000000000080000000000000400000000000,
500000000000000000000080000000000000400000000000,
500000000000000000000080000000000000400000000000,
500000000000000000000080000000000000400000000000,
500000000000000000000080000000000000400000000000,
500000000000000000000080000000000000400000000000,
000000000000300000000000000000000000300000000000,
300000000000300000000000600000000000000000000000,
000000000080000000000000000000000000000000000000,
#GOGOSTART
100000000000100000000000100000000000100000000000,
100000000000100000000000100000000000000000000000,
100000000000000000000000100000000000000000000000,
400000000000400000000000400000000000400000000000,
100000000000100000000000100000000000100000000000,
100000000000100000000000100000000000000000000000,
100000000000100000000000100000000000000000300000,
000000000000000000000000000000400000400000000000,
300000000000300000000000300000000000300000000000,
300000000000300000000000000000000000400000000000,
700000000000000000000000800000000000000000700000,
000000000000000000800000000000000000000000000000,
100000000000100000000000100000000000100000000000,
100000000000100000000000100000000000000000000000,
100000000000000000000000100000000000000000000000,
400000000000400000000000400000000000400000000000,
300000000000300000000000300000000000300000000000,
300000000000300000000000000000000000400000000000,
700000000000000000000000800000000000000000700000,
000000000000000000800000000000000000000000000000,
700000000000000000000000800000000000000000700000,
000000000000000000800000000000000000000000000000,
100000000000100000000000100000000000100000000000,
500000000000000000000080000000000000300000000000,
000000000000000000000000000000000000000000000000,
000000000000000000000000400000000000400000000000,
000000000000000000000000000000000000000000000000,
000000000000000000000000300000000000300000000000,
000000000000000000000000000000000000000000000000,
000000000000000000000000400000000000400000000000,
000000000000000000000000000000000000000000000000,
000000000000000000000000300000000000300000300000,
#GOGOEND
#END