1183 lines
33 KiB
Plaintext
1183 lines
33 KiB
Plaintext
//TJADB Project
|
|
TITLE:THE iDOLM@STER -Live Performance Version-
|
|
TITLEJA:THE IDOLM@STER
|
|
SUBTITLE:--Hiroto Sasaki/THE iDOLM@STER
|
|
SUBTITLEJA:「アイドルマスター」より
|
|
BPM:165
|
|
WAVE:THE iDOLMASTER -Live Performance Version-.ogg
|
|
OFFSET:-13.192
|
|
DEMOSTART:66.426
|
|
|
|
COURSE:Edit
|
|
LEVEL:8
|
|
SCOREINIT:560
|
|
SCOREDIFF:120
|
|
|
|
|
|
#START
|
|
|
|
|
|
500000000000000000000008000000100000000000000000,
|
|
100000200000100000000000100200100000200000000000,
|
|
100000200000100000000000100200100000200000000000,
|
|
100000200000100000000000100000100000200000100000,
|
|
#GOGOSTART
|
|
200200200000200000200000200000200000000000000000,
|
|
#GOGOEND
|
|
100000200000100000000000100200100000200000000000,
|
|
100000200000100000000000100200100000200000000000,
|
|
100000200000100000000000100000100000200000100000,
|
|
#GOGOSTART
|
|
100100100000200000100000100000200000000000000000,
|
|
#SECTION
|
|
#BRANCHSTART p,75,85
|
|
#N
|
|
#GOGOEND
|
|
100000000000200000000000100200100000200000000000,
|
|
100000100000200000000000100000100000200000000000,
|
|
100000000000200000000000100200100000200000000000,
|
|
100000100000200000000000100000100000200000000000,
|
|
100000000000000000000000000000000000000000000000
|
|
#GOGOSTART
|
|
000000000000000000000000000000000000000000000000
|
|
#GOGOEND
|
|
100000000000000000000000000000000000000000000000
|
|
#GOGOSTART
|
|
000000000000000000000000000000000000000000000000,
|
|
#GOGOEND
|
|
100000000000000000000000000000000000000000000000
|
|
#GOGOSTART
|
|
100000000000000000000000000000000000000000000000
|
|
#GOGOEND
|
|
100000000000000000000000000000000000000000000000
|
|
#GOGOSTART
|
|
100000000000000000000000000000000000000000000000,
|
|
#E
|
|
#GOGOEND
|
|
100000100000200000000000100200100000200000100000,
|
|
100000100000200000100000100000100000200000000000,
|
|
100000100000200000000000100200100000200000100000,
|
|
100000100000200000100000100000100000200000000000,
|
|
100000000000000000000000000000000000000000000000
|
|
#GOGOSTART
|
|
400000000000000000000000000000000000000000000000
|
|
#GOGOEND
|
|
100000000000000000000000000000000000000000000000
|
|
#GOGOSTART
|
|
400000000000000000000000000000000000000000000000,
|
|
#GOGOEND
|
|
300000000000000000000000000000000000000000000000
|
|
#GOGOSTART
|
|
300000000000000000000000000000000000000000000000
|
|
#GOGOEND
|
|
300000000000000000000000000000000000000000000000
|
|
#GOGOSTART
|
|
300000000000000000000000000000000000000000000000,
|
|
#M
|
|
#GOGOEND
|
|
100000100000200000000000100200100000200000100200,
|
|
100000100000200000100000100000100000200000100000,
|
|
100000100000200000000000100200100000200000100200,
|
|
100000100000200000100000100000100000200000100000,
|
|
100000000000000000000000000000000000000000000000
|
|
#GOGOSTART
|
|
400000000000000000000000000000000000000000000000
|
|
#GOGOEND
|
|
100000000000000000000000000000000000000000000000
|
|
#GOGOSTART
|
|
400000000000000000000000000000000000000000000000,
|
|
#GOGOEND
|
|
300000000000000000000000000000000000000000000000
|
|
#GOGOSTART
|
|
300000000000000000000000000000000000000000000000
|
|
#GOGOEND
|
|
300000000000000000000000000000000000000000000000
|
|
#GOGOSTART
|
|
300000000000000000000000000000000000000000000000,
|
|
#SECTION
|
|
#BRANCHSTART p,75,85
|
|
#N
|
|
#GOGOEND
|
|
100000200000100000000000100200100000200000000000,
|
|
100000200000100000000000100200100000200000000000,
|
|
100000200000100000000000100000100000200000100000,
|
|
#GOGOSTART
|
|
100100100000200000100000100000200000000000000000,
|
|
#GOGOEND
|
|
100000200000100000000000100200100000200000000000,
|
|
100000200000100000000000100200100000200000000000,
|
|
100000200000100000000000100000100000200000100000,
|
|
#GOGOSTART
|
|
100100100000200000100000100000200000000000000000,
|
|
#E
|
|
#GOGOEND
|
|
100000200000100000000000100200100000200000100000,
|
|
100000200000100000000000100200100000200000000000,
|
|
100000200000100000000000100000100000200000100000,
|
|
#GOGOSTART
|
|
100100100000200000100000100000200000000000000000,
|
|
#GOGOEND
|
|
100000200000100000000000100200100000200000100000,
|
|
100000200000100000000000100200100000200000000000,
|
|
100000200000100000000000100000100000200000100000,
|
|
#GOGOSTART
|
|
100100100000200000100000100000200000000000000000,
|
|
#M
|
|
#GOGOEND
|
|
100000200000100000000000100200100000200000100000,
|
|
100000200000100000000000100200100000200000000000,
|
|
100000200000100000000000100000100000200000100000,
|
|
#GOGOSTART
|
|
100100100000200000100000100000200000000000000000,
|
|
#GOGOEND
|
|
100000200000100000000000100200100000200000100000,
|
|
100000200000100000000000100200100000200000000000,
|
|
100000200000100000000000100000100000200000100000,
|
|
#GOGOSTART
|
|
100100100000200000100000100000200000000000000000,
|
|
#SECTION
|
|
#BRANCHSTART p,75,85
|
|
#N
|
|
#GOGOEND
|
|
100000000000200000000000100200100000200000000000,
|
|
100000100000200000000000100000100000200000000000,
|
|
100000000000200000000000100200100000200000000000,
|
|
100000100000200000000000100000100000200000000000,
|
|
100000000000000000000000000000000000000000000000
|
|
#GOGOSTART
|
|
000000000000000000000000000000000000000000000000
|
|
#GOGOEND
|
|
100000000000000000000000000000000000000000000000
|
|
#GOGOSTART
|
|
000000000000000000000000000000000000000000000000,
|
|
#GOGOEND
|
|
100000000000000000000000000000000000000000000000
|
|
#GOGOSTART
|
|
100000000000000000000000000000000000000000000000
|
|
#GOGOEND
|
|
100000000000000000000000000000000000000000000000
|
|
#GOGOSTART
|
|
100000000000000000000000000000000000000000000000,
|
|
#E
|
|
#GOGOEND
|
|
100000100000200000100000100200100000200000100000,
|
|
100000100000200000100000100000100000200000000000,
|
|
100000100000200000100000100200100000200000100000,
|
|
100000100000200000100000100000100000200000000000,
|
|
100000000000000000000000000000000000000000000000
|
|
#GOGOSTART
|
|
400000000000000000000000000000000000000000000000
|
|
#GOGOEND
|
|
100000000000000000000000000000000000000000000000
|
|
#GOGOSTART
|
|
400000000000000000000000000000000000000000000000,
|
|
#GOGOEND
|
|
300000000000000000000000000000000000000000000000
|
|
#GOGOSTART
|
|
300000000000000000000000000000000000000000000000
|
|
#GOGOEND
|
|
300000000000000000000000000000000000000000000000
|
|
#GOGOSTART
|
|
300000000000000000000000000000000000000000000000,
|
|
#M
|
|
#GOGOEND
|
|
100000100000200000100000100200100000200000100100,
|
|
100000100000200000100000100000100000200000000000,
|
|
100000100000200000100000100200100000200000100100,
|
|
100000100000200000100000100000100000200000000000,
|
|
100000000000000000000000000000000000000000000000
|
|
#GOGOSTART
|
|
400000000000000000000000000000000000000000000000
|
|
#GOGOEND
|
|
100000000000000000000000000000000000000000000000
|
|
#GOGOSTART
|
|
400000000000000000000000000000000000000000000000,
|
|
#GOGOEND
|
|
300000000000000000000000000000000000000000000000
|
|
#GOGOSTART
|
|
300000000000000000000000000000000000000000000000
|
|
#GOGOEND
|
|
300000000000000000000000000000000000000000000000
|
|
#GOGOSTART
|
|
300000000000000000000000000000000000000000000000,
|
|
#SECTION
|
|
#BRANCHSTART p,75,85
|
|
#N
|
|
#GOGOEND
|
|
100000100000200000000000100100100000200000100000,
|
|
100000100000200000100000100100100000200000100000,
|
|
100000100000200000000000100000100000200000000000,
|
|
100000000000100000000000200200200000200000000000,
|
|
100000100000200000000000100100100000200000100000,
|
|
100000100000200000100000100100100000200000100000,
|
|
100000100000200000000000100000100000200000000000,
|
|
500000000000000000000000000000000008000000000000,
|
|
#E
|
|
#GOGOEND
|
|
100000100000200000000000100100100000200000100000,
|
|
100000100000200000100000100100100000200000100000,
|
|
100000100000200000000000100000100000200000000000,
|
|
100000000000100000000000200200200000200000000000,
|
|
100000100000200000000000100100100000200000100000,
|
|
100000100000200000100000100100100000200000100000,
|
|
100000100000200000000000100000100000200000000000,
|
|
600000000000000000000008000000300000300000000000,
|
|
#M
|
|
#GOGOEND
|
|
100000100000200000100000100100100000200000100000,
|
|
100100100000200000200000100100100000200000100000,
|
|
100000100000200000100000100000100000200000100000,
|
|
100000000000100000000000200200200000200000000000,
|
|
100000100000200000100000100100100000200000100000,
|
|
100100100000200000200000100100100000200000100000,
|
|
100000100000200000100000100000100000200000000000,
|
|
600000000000000000000008000000300000300000000000,
|
|
#SECTION
|
|
#BRANCHSTART p,75,85
|
|
#N
|
|
#GOGOSTART
|
|
100000000000200000100000100200000200100000200000,
|
|
100000100000200000100000100200000200000200200000,
|
|
100000200000000000200000000000200000000000100000,
|
|
000000000000200000000000100100200200100000200000,
|
|
100000000000200000100000100200000200100000200000,
|
|
100000100000200000100000100200000200000200200000,
|
|
100000200000000000200000000000200000000000100000,
|
|
100100100000200200200000100100100000200200200000,
|
|
#E
|
|
#GOGOSTART
|
|
100000100000200000100000100200000200100000200000,
|
|
100000100000200000100000100200000200100000200000,
|
|
100000200000000000200000000000200000000000100000,
|
|
100000000000200000000000100100200200100000200000,
|
|
100000100000200000100000100200000200100000200000,
|
|
100000100000200000100000100200000200200200200000,
|
|
100000200000000000200000000000200000000000100000,
|
|
100100100000200200200000100100100000200200200000,
|
|
#M
|
|
#GOGOSTART
|
|
100000100000200000100000100200000200100000200000,
|
|
100000100000200000100100100200000200100000200000,
|
|
100000200000000000200000000000200000000000100000,
|
|
100000000000200000000000100100200200100000200000,
|
|
100000100000200000100000100200000200100000200000,
|
|
100000100000200000100100100200000200200200200000,
|
|
100000200000000000200000000000200000000000100000,
|
|
100100100000200200200000100100100000200200200000,
|
|
#SECTION
|
|
#BRANCHSTART p,75,85
|
|
#N
|
|
100000000000200000100000100200000200100000200000,
|
|
100000100000200000100000100200000200000200200000,
|
|
100000200000000000200000000000200000000000100000,
|
|
000000000000200000000000100100200200100000200000,
|
|
100000000000200000100000100200000200100000200000,
|
|
100000100000200000100000100200000200000200200000,
|
|
100000200000000000200000000000200000000000500000,
|
|
000000000000000000000000000000000008000000000000,
|
|
#E
|
|
100000000000200000100000100200000200100000200000,
|
|
100000100000200000100000100200000200100000200000,
|
|
100000200000000000200000000000200000000000100000,
|
|
100000000000200000000000100100200200100000200000,
|
|
100000000000200000100000100200000200100000200000,
|
|
100000100000200000100000100200000200200200200000,
|
|
100000200000000000200000000000200000000000500000,
|
|
000000000000000000000000000000000008000000000000,
|
|
#M
|
|
100000000000200000100000100200000200100000200000,
|
|
100000100000200000100100100200000200100000200000,
|
|
100000200000000000200000000000200000000000100000,
|
|
100000000000200000000000100100200200100000200000,
|
|
100000000000200000100000100200000200100000200000,
|
|
100000100000200000100100100200000200200200200000,
|
|
100000200000000000200000000000200000000000500000,
|
|
000000000000000000000000000000000008000000000000,
|
|
#SECTION
|
|
#BRANCHSTART p,75,85
|
|
#N
|
|
#GOGOEND
|
|
100000000000200000000000100200100000200000100000,
|
|
000000200000200000000000100100100000200200200000,
|
|
100000000000200000000000100200100100200000100000,
|
|
000000200000200000000000100100100000200200200000,
|
|
100000000000200000000000100200100000200000100000,
|
|
000000200000200000000000100100100000200200200000,
|
|
100000000000200000000000100200100100200000100000,
|
|
500000000000000000000000000000000008000000000000,
|
|
#E
|
|
#GOGOEND
|
|
100000000000200000000000100200100000200000100000,
|
|
000000200000200000000000100100100000200200200000,
|
|
100000000000200000000000100200100100200000100000,
|
|
000000200000200000000000100100100000200200200000,
|
|
100000000000200000000000100200100000200000100000,
|
|
000000200000200000000000100100100000200200200000,
|
|
100000000000200000000000100200100100200000100000,
|
|
600000000000000000000008000000300000300000000000,
|
|
#M
|
|
#GOGOEND
|
|
100000000000200000000000100200100000200000100000,
|
|
000000200000200000000000100100100000200200200000,
|
|
100000000000200000000000100200100100200000100000,
|
|
000000200000200000000000100100100000200200200000,
|
|
100000000000200000000000100200100000200000100000,
|
|
000000200000200000000000100100100000200200200000,
|
|
100000000000200000000000100200100100200000100000,
|
|
600000000000000000000008000000300000300000000000,
|
|
#SECTION
|
|
#BRANCHSTART p,75,85
|
|
#N
|
|
#GOGOSTART
|
|
100000000000200000100000100200000200100000200000,
|
|
100000100000200000100000100200000200100000200000,
|
|
100000200000000000200000000000200000000000100000,
|
|
100000000000100000000000200200200000200000000000,
|
|
100000000000200000100000100200000200100000200000,
|
|
100000100000200000100000100200000200100000200000,
|
|
100000200000000000200000000000200000000000100000,
|
|
100100100000200200200000100100100000200200200000,
|
|
#E
|
|
#GOGOSTART
|
|
100000100000200000100000100200000200100000200000,
|
|
100000100000200000100000100200000200200200200000,
|
|
100000200000000000200000000000200000000000100000,
|
|
100000000000100000000000200200200000200000000000,
|
|
100000100000200000100000100200000200100000200000,
|
|
100000100000200000100000100200000200200200200000,
|
|
100000200000000000200000000000200000000000100000,
|
|
100100100000200200200000100100100000200200200000,
|
|
#M
|
|
#GOGOSTART
|
|
100000100000200000100100100200000200100000200000,
|
|
100000100000200000100000100200000200200200200000,
|
|
100000200000000000200000000000200000000000100000,
|
|
100000000000100000000000200200200000200000000000,
|
|
100000100000200000100000100200000200100000200000,
|
|
100000100000200000100000100200000200200200200000,
|
|
100000200000000000200000000000200000000000100000,
|
|
100100100100200200200200100100100100200200200200,
|
|
#SECTION
|
|
#BRANCHSTART p,75,85
|
|
#N
|
|
100000200200000000200200000000200200000000200200,
|
|
100000200200000000200200000000200200000000200200,
|
|
100000200200000000200200100000200200000000200200,
|
|
100000000000000000000000000000100000100000200000,
|
|
#GOGOEND
|
|
100000200000000000200000000000200000000000000000,
|
|
100000200000000000200000000000200000000000000000,
|
|
100000200000000000200000000000200000000000500000,
|
|
000000000000000000000000000000000008000000000000,
|
|
#GOGOSTART
|
|
000000000000000000000000000000000000000000000000,
|
|
000000000000000000000000000000000000000000000000,
|
|
000000000000000000000000000000000000000000000000,
|
|
000000000000000000000000000000000000000000000000,
|
|
#GOGOEND
|
|
000000000000000000000000000000000000000000000000,
|
|
000000000000000000000000000000000000000000000000,
|
|
000000000000000000000000000000000000000000000000,
|
|
#E
|
|
100000200000100000200000100000200000100000200200,
|
|
100000200000100000200000100000200000100000200200,
|
|
100000200000100000000000100000200000100000000000,
|
|
100000000000000000000000000000100000100000200000,
|
|
#GOGOEND
|
|
100000200000000000200000000000200000000000000000,
|
|
100000200000000000200000000000200000000000000000,
|
|
100000200000000000200000000000200000000000600000,
|
|
000000000000000000000000000000000008000000000000,
|
|
#GOGOSTART
|
|
000000000000000000000000000000000000000000000000,
|
|
000000000000000000000000000000000000000000000000,
|
|
000000000000000000000000000000000000000000000000,
|
|
000000000000000000000000000000000000000000000000,
|
|
#GOGOEND
|
|
000000000000000000000000000000000000000000000000,
|
|
000000000000000000000000000000000000000000000000,
|
|
000000000000000000000000000000000000000000000000,
|
|
#M
|
|
100000200000100000200200100000200000100000200200,
|
|
100000200000100000200200100000200000100000200200,
|
|
100000200000100000200200100000200000100000200000,
|
|
100000000000000000000000000000100000100000200000,
|
|
#GOGOEND
|
|
100000200000000000200000000000200000000000000000,
|
|
100000200000000000200000000000200000000000000000,
|
|
100000200000000000200000000000200000000000600000,
|
|
000000000000000000000000000000000008000000000000,
|
|
|
|
#BRANCHEND
|
|
|
|
|
|
#END
|
|
|
|
|
|
COURSE:Oni
|
|
LEVEL:8
|
|
SCOREINIT:360
|
|
SCOREDIFF:88
|
|
|
|
|
|
#START
|
|
|
|
|
|
#SCROLL 2
|
|
500000000000000000000000000000000008000000000000,
|
|
#SCROLL 1
|
|
100000100000200000100000000000100100200000100000,
|
|
000000100000200000100000000000100100200000100000,
|
|
000000100000200000100000200200200000100100100000,
|
|
#GOGOSTART
|
|
300000000000300000000000300000000000300000000000,
|
|
#GOGOEND
|
|
100000100000200000100000000000100100200000100000,
|
|
000000100000200000100000000000100100200000100000,
|
|
000000100000200000100000100100100000200200200000,
|
|
#GOGOSTART
|
|
300000000000300000000000300000000000300000000000,
|
|
#SECTION
|
|
#BRANCHSTART p,75,85
|
|
#N
|
|
#GOGOEND
|
|
100000200200200000100000000000100000200000000000,
|
|
100000200200200000100000000000100000100000000000,
|
|
100000200200200000100000000000100000200000000000,
|
|
100000200200200000100000000000100000100000200000,
|
|
100000000000100000000000100000000000000000000000
|
|
#GOGOSTART
|
|
#SCROLL 2
|
|
400000000000000000000000000000000000000000000000
|
|
#GOGOEND
|
|
#SCROLL 1
|
|
100000000000100000000000100000000000000000000000
|
|
#GOGOSTART
|
|
#SCROLL 2
|
|
400000000000000000000000000000000000000000000000,
|
|
#GOGOEND
|
|
#SCROLL 1
|
|
100000000000100000000000100000000000000000000000
|
|
#GOGOSTART
|
|
#SCROLL 2
|
|
400000000000000000000000000000000000000000000000
|
|
#GOGOEND
|
|
#SCROLL 1
|
|
100000000000100000000000100000000000000000000000
|
|
#GOGOSTART
|
|
#SCROLL 2
|
|
400000000000000000000000000000000000000000000000,
|
|
#E
|
|
#GOGOEND
|
|
100000200200100000100000000000100100200000100000,
|
|
100000200200100000100000000000100000100000000000,
|
|
100000200200100000100000000000100100200000100000,
|
|
100000200200100000100000000000100000100000200000,
|
|
100000000000100000000000100000000000000000000000
|
|
#GOGOSTART
|
|
#SCROLL 3
|
|
400000000000000000000000000000000000000000000000
|
|
#GOGOEND
|
|
#SCROLL 1
|
|
100000000000100000000000100000000000000000000000
|
|
#GOGOSTART
|
|
#SCROLL 3
|
|
400000000000000000000000000000000000000000000000,
|
|
#GOGOEND
|
|
#SCROLL 1
|
|
100000000000100000000000100000000000000000000000
|
|
#GOGOSTART
|
|
#SCROLL 3
|
|
400000000000000000000000000000000000000000000000
|
|
#GOGOEND
|
|
#SCROLL 1
|
|
100000000000100000000000100000000000000000000000
|
|
#GOGOSTART
|
|
#SCROLL 3
|
|
400000000000000000000000000000000000000000000000,
|
|
#M
|
|
#GOGOEND
|
|
100000200200100000100200200200100000100200200000,
|
|
100000200200100000100200200000100200100000200000,
|
|
100000200200100000100200200200100000100200200000,
|
|
100000200200100000100200200000100200100000200000,
|
|
100000000000100000000000100000000000000000000000
|
|
#GOGOSTART
|
|
#SCROLL 4
|
|
400000000000000000000000000000000000000000000000
|
|
#GOGOEND
|
|
#SCROLL 1
|
|
100000000000100000000000100000000000000000000000
|
|
#GOGOSTART
|
|
#SCROLL 4
|
|
400000000000000000000000000000000000000000000000,
|
|
#GOGOEND
|
|
#SCROLL 1
|
|
100000000000100000000000100000000000000000000000
|
|
#GOGOSTART
|
|
#SCROLL 4
|
|
400000000000000000000000000000000000000000000000
|
|
#GOGOEND
|
|
#SCROLL 1
|
|
100000000000100000000000100000000000000000000000
|
|
#GOGOSTART
|
|
#SCROLL 4
|
|
400000000000000000000000000000000000000000000000,
|
|
#SECTION
|
|
#BRANCHSTART p,75,85
|
|
#N
|
|
#GOGOEND
|
|
#SCROLL 1
|
|
100000100000200000100000000000100100200000100000,
|
|
000000100000200000100000000000100100200000100000,
|
|
000000100000200000100000200200200000100100100000,
|
|
#GOGOSTART
|
|
300000000000300000000000300000000000300000000000,
|
|
#GOGOEND
|
|
100000100000200000100000000000100100200000100000,
|
|
000000100000200000100000000000100100200000100000,
|
|
000000100000200000100000100100100000200200200000,
|
|
#GOGOSTART
|
|
300000000000300000000000300000000000300000000000,
|
|
#E
|
|
#GOGOEND
|
|
#SCROLL 1
|
|
100000100000200000100000000000100100200000100000,
|
|
000000100000200000100000000000100100200000100000,
|
|
000000100000200000100000100100200000100100200000,
|
|
#GOGOSTART
|
|
300000000000300000000000300000000000300000000000,
|
|
#GOGOEND
|
|
100000100000200000100000000000100100200000100000,
|
|
000000100000200000100000000000100100200000100000,
|
|
000000100000200000100000100200200000100200200000,
|
|
#GOGOSTART
|
|
300000000000300000000000300000000000300000000000,
|
|
#M
|
|
#GOGOEND
|
|
#SCROLL 1
|
|
100000100100200200100100100000100100200000200100,
|
|
100000100100200200100100200000100100200000200100,
|
|
100000100100200200100100100000100100200000200000,
|
|
#GOGOSTART
|
|
300000000000300000000000300000000000300000000000,
|
|
#GOGOEND
|
|
100000100100200200100100100000100100200000200100,
|
|
100000100100200200100100200000100100200000200100,
|
|
100000100100200200100200200000100200200000200000,
|
|
#GOGOSTART
|
|
300000000000300000000000300000000000300000000000,
|
|
#SECTION
|
|
#BRANCHSTART p,75,85
|
|
#N
|
|
#GOGOEND
|
|
100000200200200000100000000000100000200000000000,
|
|
100000200200200000100000000000100000100000000000,
|
|
100000200200200000100000000000100000200000000000,
|
|
100000200200200000100000000000100000100000200000,
|
|
100000000000100000000000100000000000000000000000
|
|
#GOGOSTART
|
|
#SCROLL 2
|
|
400000000000000000000000000000000000000000000000
|
|
#GOGOEND
|
|
#SCROLL 1
|
|
100000000000100000000000100000000000000000000000
|
|
#GOGOSTART
|
|
#SCROLL 2
|
|
400000000000000000000000000000000000000000000000,
|
|
#GOGOEND
|
|
#SCROLL 1
|
|
100000000000100000000000100000000000000000000000
|
|
#GOGOSTART
|
|
#SCROLL 2
|
|
400000000000000000000000000000000000000000000000
|
|
#GOGOEND
|
|
#SCROLL 1
|
|
100000000000100000000000100000000000000000000000
|
|
#GOGOSTART
|
|
#SCROLL 2
|
|
400000000000000000000000000000000000000000000000,
|
|
#GOGOEND
|
|
#SCROLL 1
|
|
500000000000000000000008000000000000400000000000,
|
|
500000000000000000000008000000000000400000000000,
|
|
500000000000000000000008000000000000400000000000,
|
|
500000000000000000000008000000000000400000000000,
|
|
500000000000000000000008000000000000400000000000,
|
|
500000000000000000000008000000000000400000000000,
|
|
500000000000000000000008000000000000400000000000,
|
|
400000000000000000000000000000000000000000000000,
|
|
#E
|
|
#GOGOEND
|
|
100000200200100000100000000000100100200000100000,
|
|
100000200200100000100000000000100000100000000000,
|
|
100000200200100000100000000000100100200000100000,
|
|
100000200200100000100000000000100000100000200000,
|
|
100000000000100000000000100000000000000000000000
|
|
#GOGOSTART
|
|
#SCROLL 3
|
|
400000000000000000000000000000000000000000000000
|
|
#GOGOEND
|
|
#SCROLL 1
|
|
100000000000100000000000100000000000000000000000
|
|
#GOGOSTART
|
|
#SCROLL 3
|
|
400000000000000000000000000000000000000000000000,
|
|
#GOGOEND
|
|
#SCROLL 1
|
|
100000000000100000000000100000000000000000000000
|
|
#GOGOSTART
|
|
#SCROLL 3
|
|
400000000000000000000000000000000000000000000000
|
|
#GOGOEND
|
|
#SCROLL 1
|
|
100000000000100000000000100000000000000000000000
|
|
#GOGOSTART
|
|
#SCROLL 3
|
|
400000000000000000000000000000000000000000000000,
|
|
#GOGOEND
|
|
#SCROLL 1
|
|
500000000000000000000008000000200200200000200000,
|
|
500000000000000000000008000000100100100000100000,
|
|
500000000000000000000008000000200200200000200000,
|
|
500000000000000000000008000000100100100000100000,
|
|
500000000000000000000008000000200200200000200000,
|
|
500000000000000000000008000000100100100000100000,
|
|
500000000000000000000008000000200200200000000000,
|
|
400000000000000000000000000000000000000000000000,
|
|
#M
|
|
#GOGOEND
|
|
100000200200100000100200200200100000100200200000,
|
|
100000200200100000100200200000100200100000200000,
|
|
100000200200100000100200200200100000100200200000,
|
|
100000200200100000100200200000100200100000200000,
|
|
100000000000100000000000100000000000000000000000
|
|
#GOGOSTART
|
|
#SCROLL 4
|
|
400000000000000000000000000000000000000000000000
|
|
#GOGOEND
|
|
#SCROLL 1
|
|
100000000000100000000000100000000000000000000000
|
|
#GOGOSTART
|
|
#SCROLL 4
|
|
400000000000000000000000000000000000000000000000,
|
|
#GOGOEND
|
|
#SCROLL 1
|
|
100000000000100000000000100000000000000000000000
|
|
#GOGOSTART
|
|
#SCROLL 4
|
|
400000000000000000000000000000000000000000000000
|
|
#GOGOEND
|
|
#SCROLL 1
|
|
100000000000100000000000100000000000000000000000
|
|
#GOGOSTART
|
|
#SCROLL 4
|
|
400000000000000000000000000000000000000000000000,
|
|
#GOGOEND
|
|
#SCROLL 1
|
|
500000000000000000000008000000100100200000200000,
|
|
500000000000000000000008000000200200100000100000,
|
|
500000000000000000000008000000100100200000200000,
|
|
100200100000200000100200100200200200100200100000,
|
|
500000000000000000000008000000100100200000200000,
|
|
500000000000000000000008000000200200100000100000,
|
|
500000000000000000000008000000100100200000000000,
|
|
100200100200200200100200200200100200100200100200,
|
|
#SECTION
|
|
#BRANCHSTART p,75,85
|
|
#N
|
|
#GOGOSTART
|
|
100100100000200000100000000000400000400000000000,
|
|
100100100000200000100000000000400000400000000000,
|
|
100100100000200000100100100000200000000000200000,
|
|
300000400000300000400000300000400000300000400000,
|
|
100100200000200000100000000000400000400000000000,
|
|
100100200000200000100000000000400000400000000000,
|
|
100100200000200000100100200000200000000000200000,
|
|
300000400000300000400000300000400000300000400000,
|
|
#E
|
|
#GOGOSTART
|
|
100100100000200000100100100000400000400000000000,
|
|
100100100000200000100100100000400000400000000000,
|
|
100100100000200000100100200000100100200000200000,
|
|
300000400000300000400000300000400000300000400000,
|
|
100100200000200000100100100000400000400000000000,
|
|
100100200000200000100100100000400000400000000000,
|
|
100100200000200000100100200000200200100000200000,
|
|
300000400000300000400000300000400000300000400000,
|
|
#M
|
|
#GOGOSTART
|
|
100000100100200200100100100000400000400000100200,
|
|
100000100100200200100100100000400000400000100200,
|
|
100000100100200200100100200200100200100000200000,
|
|
300000400000300000400000300000400000300000400000,
|
|
100000100100200200200100100000400000400000100200,
|
|
100000100100200200200100100000400000400000100200,
|
|
100000100200200200100200200200100200100000200000,
|
|
300000400000300000400000300000400000300000400000,
|
|
#SECTION
|
|
#BRANCHSTART p,75,85
|
|
#N
|
|
100100100000200000100000000000400000400000000000,
|
|
100100100000200000100000000000400000400000000000,
|
|
100100100000200000100100100000200000000000200000,
|
|
300000400000300000400000300000400000300000400000,
|
|
100100200000200000100000000000400000400000000000,
|
|
100100200000200000100000000000400000400000000000,
|
|
100100200000200000100100200000200000000000200000,
|
|
300000400000300000400000300000400000300000400000,
|
|
#E
|
|
100100100000200000100100100000400000400000000000,
|
|
100100100000200000100100100000400000400000000000,
|
|
100100100000200000100100200000100100200000200000,
|
|
300000400000300000400000300000400000300000400000,
|
|
100100200000200000100100100000400000400000000000,
|
|
100100200000200000100100100000400000400000000000,
|
|
100100200000200000100100200000200200100000200000,
|
|
300000400000300000400000300000400000300000400000,
|
|
#M
|
|
100000100100200200100100100000400000400000100200,
|
|
100000100100200200100100100000400000400000100200,
|
|
100000100100200200100100200200100200100000200000,
|
|
300000400000300000400000300000400000300000400000,
|
|
100000100100200200200100100000400000400000100200,
|
|
100000100100200200200100100000400000400000100200,
|
|
100000100200200200100200200200100200100000200000,
|
|
200200100100200200100100200200200200100100100100,
|
|
#SECTION
|
|
#BRANCHSTART p,75,85
|
|
#N
|
|
#GOGOEND
|
|
000000000000300000000000000000000000300000000000,
|
|
000000000000300000000000000000000000300000000000,
|
|
000000000000400000000000000000000000400000000000,
|
|
000000000000400000000000000000000000400000000000,
|
|
100100100000300000000000100100100000300000000000,
|
|
100100100000300000000000100100100000300000000000,
|
|
100100100000400000000000100100100000400000000000,
|
|
#SCROLL 2
|
|
500000000000000000000000000000000008000000000000,
|
|
#E
|
|
#GOGOEND
|
|
000000000000300000000000000000000000300000000000,
|
|
000000000000300000000000000000000000300000000000,
|
|
000000000000400000000000000000000000400000000000,
|
|
000000000000400000000000000000000000400000000000,
|
|
100100200000300000000000100100200000300000000000,
|
|
100100200000300000000000100100200000300000000000,
|
|
100200100000400000000000100200100000400000000000,
|
|
#SCROLL 2
|
|
500000000000000000000000000000000008000000000000,
|
|
#M
|
|
#GOGOEND
|
|
100100200000300000000000100100200000300000000000,
|
|
100100200000300000000000100100200000300000000000,
|
|
100200100000400000000000100200100000400000000000,
|
|
100200100000400000000000100200100000400000000000,
|
|
100200200000300000200200100200200000300000000000,
|
|
100200200000300000200200100200200000300000100200,
|
|
100200100000400000100200100200100000400000100200,
|
|
100200200200200200200200100200000100200000100200,
|
|
#SECTION
|
|
#BRANCHSTART p,75,85
|
|
#N
|
|
#GOGOSTART
|
|
#SCROLL 1
|
|
100100100000200000100000000000400000400000000000,
|
|
100100100000200000100000000000400000400000000000,
|
|
100100100000200000100100100000200000000000200000,
|
|
300000400000300000400000300000400000300000400000,
|
|
100100200000200000100000000000400000400000000000,
|
|
100100200000200000100000000000400000400000000000,
|
|
100100200000200000100100200000200000000000200000,
|
|
300000400000300000400000300000400000300000400000,
|
|
#E
|
|
#GOGOSTART
|
|
#SCROLL 1
|
|
100100100000200000100100100000400000400000100200,
|
|
100100100000200000100100100000400000400000100200,
|
|
100100100000200000100100200000100100200000200000,
|
|
300000400000300000400000300000400000300000400000,
|
|
100100200000200000100100100000400000400000100200,
|
|
100100200000200000100100100000400000400000100200,
|
|
100100200000200000100100200000200200100000200000,
|
|
300000400000300000400000300000400000300000400000,
|
|
#M
|
|
#GOGOSTART
|
|
#SCROLL 1
|
|
100000100100200200100100100000400000400000100200,
|
|
100000100100200200100100100000400000400000100200,
|
|
100000100100200200100100200200100200100000200000,
|
|
100100200000100000100200200200100200100100100200,
|
|
100000100100200200200100100000400000400000100200,
|
|
100000100100200200200100100000400000400000100200,
|
|
100000100200200200100200200200100200100000200000,
|
|
200200100100200200100100200200100200100100200100,
|
|
#SECTION
|
|
#BRANCHSTART p,75,85
|
|
#N
|
|
100000000000100000000000100000400000400000000000,
|
|
100000000000100000000000100000400000400000000000,
|
|
100000000000100000000000100000000000100000000000,
|
|
400000000000400000000000400000000000400000000000,
|
|
#GOGOEND
|
|
200000200000000000200000000000400000400000000000,
|
|
200000200000000000200000000000400000400000000000,
|
|
200000200000000000200000000000200000000000200000,
|
|
200200200000200200200000100100100000100100100000,
|
|
#GOGOSTART
|
|
100100100000300000000000100100100000300000000000,
|
|
100100100000300000000000100100100000300000000000,
|
|
#SCROLL 2
|
|
600000000000000000000000000000000000000000000000,
|
|
000000000000000000000000000000000000000000000008,
|
|
#GOGOEND
|
|
#SCROLL 1
|
|
000000000000000000000000000000000000000000000000,
|
|
000000000000000000000000000000000000000000000000,
|
|
000000000000000000000000000000000000000000000000,
|
|
#E
|
|
100000000000100000000000100000400000400000000000,
|
|
100000000000100000000000100000400000400000000000,
|
|
100000000000100000000000100000000000100000000000,
|
|
400000000000400000000000400000000000400000000000,
|
|
#GOGOEND
|
|
200000200000000000200000000000400000400000000000,
|
|
200000200000000000200000000000400000400000000000,
|
|
200000200000000000200000000000200000000000200000,
|
|
200200200000200200200000100100100000100100100000,
|
|
#GOGOSTART
|
|
100100100000300000100100100100100000300000100100,
|
|
100100100000300000100100100100100000300000000000,
|
|
#SCROLL 2
|
|
600000000000000000000000000000000000000000000000,
|
|
000000000000000000000000000000000000000000000008,
|
|
#GOGOEND
|
|
#SCROLL 1
|
|
000000000000000000000000000000000000000000000000,
|
|
000000000000000000000000000000000000000000000000,
|
|
000000000000000000000000000000000000000000000000,
|
|
#M
|
|
100000000000100000000000100000400000400000000000,
|
|
100000000000100000000000100000400000400000000000,
|
|
100000000000100000000000100000000000100000000000,
|
|
400000000000400000000000400000000000400000000000,
|
|
#GOGOEND
|
|
200200200000000000200000000000400000400000000000,
|
|
200200200000000000200000000000400000400000000000,
|
|
200200200000000000200000000000200200200000200200,
|
|
200200100100200200100100200200100200100100200100,
|
|
#GOGOSTART
|
|
100100200000300000100200100100200000300000100200,
|
|
100100200000300000100200100100200000300000000000,
|
|
#SCROLL 2
|
|
600000000000000000000000000000000000000000000000,
|
|
000000000000000000000000000000000000000000000008,
|
|
|
|
#BRANCHEND
|
|
#GOGOEND
|
|
|
|
|
|
#END
|
|
|
|
|
|
COURSE:Hard
|
|
LEVEL:4
|
|
BALLOON:8,8
|
|
SCOREINIT:610
|
|
SCOREDIFF:153
|
|
|
|
#START
|
|
500000000000000000000008000000100000000000000000,
|
|
12101120,
|
|
12101120,
|
|
12101121,
|
|
10210120,
|
|
12101120,
|
|
12101120,
|
|
12101121,
|
|
1000100011101000,
|
|
#BPMCHANGE 166
|
|
11201020,
|
|
11201120,
|
|
11201020,
|
|
11201120,
|
|
11,
|
|
1111,
|
|
#BPMCHANGE 165.1
|
|
12101120,
|
|
12101120,
|
|
12101121,
|
|
10210120,
|
|
12101120,
|
|
12101120,
|
|
12101121,
|
|
1000100011101000,
|
|
#BPMCHANGE 164
|
|
11201020,
|
|
11201120,
|
|
11201020,
|
|
11201120,
|
|
11,
|
|
1111,
|
|
#BPMCHANGE 165.25
|
|
11202211,
|
|
11202211,
|
|
11202211,
|
|
10001012,
|
|
11202211,
|
|
11202211,
|
|
11211120,
|
|
500000000000000000000000000000000008000000000000,//37
|
|
|
|
#GOGOSTART
|
|
1000201011102000,
|
|
1010201011102000,
|
|
11020201,
|
|
00000112,
|
|
1000201011102000,
|
|
1010201011102000,
|
|
11020207,
|
|
0008,
|
|
1000201011102000,
|
|
1010201011102000,
|
|
11020201,
|
|
00000112,
|
|
1000201011102000,
|
|
1010201011102000,
|
|
11020205,
|
|
000000000000000000000000000000000008000000000000,//53
|
|
|
|
#BPMCHANGE 164.89
|
|
#GOGOEND
|
|
10201121,
|
|
0020200011102000,
|
|
10201121,
|
|
0020200022202000,
|
|
10201121,
|
|
0020200011102000,
|
|
10201121,
|
|
500000000000000000000000000000000008000000000000,//61
|
|
|
|
#GOGOSTART
|
|
1000201011102000,
|
|
1010201011102000,
|
|
11020201,
|
|
00000112,
|
|
1000201011102000,
|
|
1010201011102000,
|
|
11020207,
|
|
0008,
|
|
1011,
|
|
1011,
|
|
1111,
|
|
10000112,
|
|
12020200,
|
|
12020200,
|
|
12020205,
|
|
000000000000000000000000000000000008000000000000,//77
|
|
|
|
#GOGOEND
|
|
|
|
#END
|
|
|
|
COURSE:Normal
|
|
LEVEL:4
|
|
BALLOON:6,6
|
|
|
|
#START
|
|
500000000000000000000008000000000000000000000000,
|
|
10110000,
|
|
10110020,
|
|
10001110,
|
|
0202,
|
|
10110000,
|
|
10110020,
|
|
1011,
|
|
,
|
|
#BPMCHANGE 166
|
|
10202200,
|
|
11,
|
|
10202200,
|
|
11,
|
|
11,
|
|
1111,
|
|
#BPMCHANGE 165.1
|
|
10110000,
|
|
10110020,
|
|
10001110,
|
|
,
|
|
10110000,
|
|
10110020,
|
|
1011,
|
|
,
|
|
#BPMCHANGE 164
|
|
10202200,
|
|
11,
|
|
10202200,
|
|
11,
|
|
11,
|
|
1111,
|
|
#BPMCHANGE 165.25
|
|
10201100,
|
|
10202200,
|
|
1202,
|
|
1200,
|
|
10201100,
|
|
10202200,
|
|
1202,
|
|
500000000000000000000000000000000008000000000000,//37
|
|
|
|
#GOGOSTART
|
|
11010100,
|
|
11010100,
|
|
11010101,
|
|
,
|
|
11020200,
|
|
11020200,
|
|
11020207,
|
|
0008,
|
|
11010100,
|
|
11010100,
|
|
11010101,
|
|
,
|
|
11020200,
|
|
11020200,
|
|
11020205,
|
|
000000000000000000000000000000000008000000000000,//53
|
|
|
|
#BPMCHANGE 164.89
|
|
#GOGOEND
|
|
10201100,
|
|
02201000,
|
|
10201100,
|
|
02201000,
|
|
10201100,
|
|
02201000,
|
|
10201100,
|
|
500000000000000000000000000000000008000000000000,//61
|
|
|
|
#GOGOSTART
|
|
11010100,
|
|
11010100,
|
|
11010101,
|
|
,
|
|
11020200,
|
|
11020200,
|
|
11020207,
|
|
0008,
|
|
1011,
|
|
1011,
|
|
11,
|
|
1,
|
|
11020200,
|
|
11020200,
|
|
11020205,
|
|
000000000000000000000000000000000008000000000000,//77
|
|
|
|
#GOGOEND
|
|
|
|
#END
|
|
|
|
COURSE:Easy
|
|
LEVEL:3
|
|
BALLOON:4,4
|
|
|
|
#START
|
|
500000000000000000000008000000000000000000000000,
|
|
1100,
|
|
1100,
|
|
10001110,
|
|
0200,
|
|
1100,
|
|
1100,
|
|
1011,
|
|
,
|
|
#BPMCHANGE 166
|
|
0202,
|
|
11,
|
|
0202,
|
|
11,
|
|
11,
|
|
1110,
|
|
#BPMCHANGE 165.1
|
|
1100,
|
|
1100,
|
|
10001110,
|
|
0200,
|
|
1100,
|
|
1100,
|
|
1011,
|
|
,
|
|
#BPMCHANGE 164
|
|
0202,
|
|
11,
|
|
0202,
|
|
11,
|
|
11,
|
|
1110,
|
|
#BPMCHANGE 165.25
|
|
1011,
|
|
12,
|
|
1011,
|
|
12,
|
|
1011,
|
|
12,
|
|
1011,
|
|
500000000000000000000000000000000008000000000000,//37
|
|
|
|
#GOGOSTART
|
|
1012,
|
|
1012,
|
|
1011,
|
|
1,
|
|
1012,
|
|
1012,
|
|
10001007,
|
|
0008,
|
|
1012,
|
|
1012,
|
|
1011,
|
|
1,
|
|
1012,
|
|
1012,
|
|
10001005,
|
|
000000000000000000000000000000000008000000000000,//53
|
|
|
|
#BPMCHANGE 164.89
|
|
#GOGOEND
|
|
1,
|
|
0202,
|
|
1,
|
|
0202,
|
|
1,
|
|
0202,
|
|
1,
|
|
500000000000000000000000000000000008000000000000,//61
|
|
|
|
#GOGOSTART
|
|
1012,
|
|
1012,
|
|
1011,
|
|
1,
|
|
1012,
|
|
1012,
|
|
10001007,
|
|
0008,
|
|
1012,
|
|
1012,
|
|
1011,
|
|
1,
|
|
1012,
|
|
1012,
|
|
10001005,
|
|
000000000000000000000000000000000008000000000000,//77
|
|
|
|
#GOGOEND
|
|
,
|
|
,
|
|
,
|
|
,
|
|
,
|
|
,
|
|
#END |