389 lines
16 KiB
Plaintext
389 lines
16 KiB
Plaintext
//TJADB Project
|
||
TITLE:TRIAL DANCE
|
||
TITLEJA:TRIAL DANCE
|
||
SUBTITLE:--Keizo Nakanishi feat. Manami Numakura/THE iDOLM@STER MUST SONGS: Blue Album
|
||
BPM:139
|
||
WAVE:TRIAL DANCE.ogg
|
||
OFFSET:-1.902
|
||
DEMOSTART:89.526
|
||
|
||
COURSE:Oni
|
||
LEVEL:8
|
||
SCOREINIT:470
|
||
SCOREDIFF:123
|
||
NOTESDESIGNER3:Kuboken
|
||
|
||
|
||
#START
|
||
|
||
|
||
300000000000000000000000000000000000000000100100,
|
||
100000000100000000100000000000000000000000000000,
|
||
300000000000000000000000000000000000100100100100,
|
||
100000000000000000000000000000000000000000000000,
|
||
200200200200200200200200202020200200100100100100,
|
||
|
||
#GOGOSTART
|
||
100000100100200000100100200000000000100000100100,
|
||
100000100100200000100100200000100000200000100000,
|
||
100100000100200000200200100100000100200000200200,
|
||
100100000100200000200200100000000000100000100100,
|
||
100000100100200000100100200000000000100000100100,
|
||
100000100100200000100100200000100200200000200000,
|
||
100100000100200000200200100100200100200000200200,
|
||
100000200000100000100000200000100000200000100000,
|
||
|
||
#GOGOEND
|
||
400000100100100000100100200000100100100000101010,
|
||
200000101010200000200000100000100100200000300000,
|
||
400000100100100000100100200000100100100000101010,
|
||
200000101010200000200000100000100100200000300000,
|
||
400000000000200000100000100000200000200000100000,
|
||
100000000000200000100000100200100000200000000000,
|
||
100000000000200000100000100000200000200000100000,
|
||
100000000000200000100000100200100000200000200200,
|
||
100000000000200000100000100000000000200000100000,
|
||
100000000000200000100000100200100000200000200200,
|
||
100000000000200000100000200000000000200000100000,
|
||
200200200000200200200000200200200000200200100200,
|
||
100000000000200000100000100000200000200000100000,
|
||
100000000000200000100000100200100000200000000000,
|
||
100000000000200000100000100000200000200000100000,
|
||
100000000000200000100000100200100000200000200200,
|
||
100000000000200000100000100000000000200000100000,
|
||
100000000000200000100000100200100000200000200200,
|
||
100000000000200000100000200000000000200000100000,
|
||
200200200000200200200000200200200000200200100200,
|
||
100000000100200000100000000000100000200000100100,
|
||
100000000100200000100000100200100000200000000000,
|
||
100000000100200000100000000000100000200000100100,
|
||
100000200100200000100000100200100000200000200100,
|
||
100000000100200000100000000000100000200000100100,
|
||
100000000100200000100000100200100000200000000000,
|
||
100000000100200000100000000000100000200000100100,
|
||
100000200100200000100000100200100000200000200100,
|
||
100000000100200000100000000000100000200000100100,
|
||
100000000100200000100000100200100000200000100000,
|
||
200000100100200000100000000000100000200000100100,
|
||
100000200100200000100000100200100000200000100100,
|
||
100000100000200000100100000000100000200000100100,
|
||
000000100000200000100100200000000000200000200000,
|
||
100100100000100100100000200200200000200200200000,
|
||
100100100000100100100000100100100000100000100100,
|
||
200000100000100000100000100000100000100000200000,
|
||
200200000200200000200000000000400000100100100100,
|
||
|
||
#GOGOSTART
|
||
100000100100200000100100200000000000100000100100,
|
||
100000100100200000100100200000100000200000100000,
|
||
100100000100200000200200100100000100200000200200,
|
||
100100000100200000200200100000000000100000100100,
|
||
100000100100200000100100200000000000100000100100,
|
||
100000100100200000100100200000100200200000200000,
|
||
100100000100200000200200100100200100200000200200,
|
||
100000200000100000100000200000100000200000100000,
|
||
100000100100200000100100200000000000100000100100,
|
||
100000100100200000100100200000100000200000100000,
|
||
100100000100200000200200100100000100200000200200,
|
||
100100000100200000200200100000000000100000100100,
|
||
100000100100200000100100200000000000100000100100,
|
||
100000100100200000100100200000100200200000200000,
|
||
100100000100200000200200100100200100200000200200,
|
||
100000200000100000100000
|
||
|
||
#GOGOEND
|
||
200000100000200000100000,
|
||
300000000000000000000000000000000000000000100100,
|
||
100000000100000000100000000000000000000000000000,
|
||
300000200200200200200200200200200200100100100100,
|
||
100000100000200000200200100000100000200000200200,
|
||
100100000100200000200200100100200000200200200100,
|
||
100000100000100000100000100000100000100000100000,
|
||
100000000000000000100100100000000000000000000000,
|
||
|
||
|
||
#END
|
||
|
||
|
||
COURSE:Hard
|
||
LEVEL:5
|
||
BALLOON:13,13
|
||
SCOREINIT:670
|
||
SCOREDIFF:190
|
||
|
||
|
||
#START
|
||
|
||
|
||
000000000000000000000000000000000000000000000000,
|
||
000000000000000000000000000000000000000000000000,
|
||
000000000000000000000000000000000000000000000000,
|
||
000000000000000000000000000000000000000000000000,
|
||
000000000000000000000000000000000000100000100100,
|
||
#GOGOSTART
|
||
100000000000100000000000100000000000100000100100,
|
||
100000000000100000000000100000100100100000000000,
|
||
100000000000200000100000000000200000100000000000,
|
||
200000100000000000000000200000000000100000100100,
|
||
100000000000100000000000100000000000100000100100,
|
||
100000000000100000000000100000100100100000000000,
|
||
200000000000200000200000500000000000000000000000,
|
||
000000000000000000000000000000000080000000000000,
|
||
#GOGOEND
|
||
400000000000300000000000000000000000300000000000,
|
||
000000000000300000000000000000000000300000400000,
|
||
400000000000300000000000000000000000300000000000,
|
||
000000000000300000000000000000000000300000400000,
|
||
300000000000200000100000100000000000200000100000,
|
||
100000000000200000100000000000100000200000000000,
|
||
100000000000200000100000100000000000200000100000,
|
||
100000000000200000100000000000100000200000000000,
|
||
100000000000200000100000100000000000200000100000,
|
||
100000000000200000100000100000200000000000200000,
|
||
100000000000200000100000100000000000100000100000,
|
||
200200200000200000000000200200200000200000000000,
|
||
100000000000200000100000100000000000200000100000,
|
||
100000000000200000100000000000100000200000000000,
|
||
100000000000200000100000100000000000200000100000,
|
||
100000000000200000100000000000100000200000000000,
|
||
100000000000200000100000100000000000200000100000,
|
||
100000000000200000100000100000200000000000200000,
|
||
100000000000200000100000100000000000100000100000,
|
||
200200200000200000000000200200200000200000000000,
|
||
100000000000200000100000000000100000200000000000,
|
||
100000000000200000100000100000000000200000000000,
|
||
100000000000200000100000000000100000200000000000,
|
||
100100100000200000000000100100100000200000000000,
|
||
100000000000200000100000000000100000200000000000,
|
||
100000000000200000100000100000000000200000000000,
|
||
100000000000200000100000000000100000500000000000,
|
||
000000000000000000000080000000000000000000000000,
|
||
100000000000200000100000000000100000200000000000,
|
||
100000000000200000100000100000000000200000200000,
|
||
100000100000200000100000000000100000200000100000,
|
||
000000100000200000000000000000100000200000100000,
|
||
000000100000200000100000000000100000200000100000,
|
||
000000100000200000000000200000000000200000200000,
|
||
900000000000000000000000000000000000000000000000,
|
||
000000000000000000800000000000000000000000000000,
|
||
900000000000000000000000000000000000000000000000,
|
||
000000000000000000000800000000000000100000100100,
|
||
#GOGOSTART
|
||
100000000000100000000000100000000000100000100100,
|
||
100000000000100000000000100000100100100000000000,
|
||
100000100000200000100000000000200000100000000000,
|
||
200000100000000000000000200000000000100000100100,
|
||
100000000000100000000000100000000000100000100100,
|
||
100000000000100000000000100000100100100000000000,
|
||
200000000000200000200000500000000000000000000000,
|
||
000000000000000000000080000000000000100000100100,
|
||
100000000000100000000000100000000000100000100100,
|
||
100000000000100000000000100000100100100000000000,
|
||
100000100000200000100000000000200000100000000000,
|
||
200000100000000000000000200000000000100000100100,
|
||
100000000000100000000000100000000000100000100100,
|
||
100000000000100000000000100000100100100000000000,
|
||
200000000000200000200000500000000000000000000000,
|
||
000000000000000000000000
|
||
#GOGOEND
|
||
000000000080000000000000,
|
||
300000000000000000000000000000000000000000000000,
|
||
300000000000000000000000000000000000000000000000,
|
||
300000000000000000000000000000000000100100100100,
|
||
100000100000200000200000100000100000200000200000,
|
||
100100100000200000200000100100100000200000200000,
|
||
500000000000000000000000000000000000000000000080,
|
||
000000000000000000100100100000000000000000000000,
|
||
|
||
|
||
#END
|
||
|
||
|
||
COURSE:Normal
|
||
LEVEL:5
|
||
BALLOON:10,10
|
||
SCOREINIT:690
|
||
SCOREDIFF:215
|
||
|
||
|
||
#START
|
||
|
||
|
||
000000000000000000000000000000000000000000000000,
|
||
000000000000000000000000000000000000000000000000,
|
||
000000000000000000000000000000000000000000000000,
|
||
000000000000000000000000000000000000000000000000,
|
||
000000000000000000000000000000000000100000100000,
|
||
#GOGOSTART
|
||
100000000000100000000000100000000000100000100000,
|
||
100000000000100000000000100000100000100000000000,
|
||
100000000000100000100000000000100000100000000000,
|
||
100000100000000000000000000000000000100000100000,
|
||
100000000000100000000000100000000000100000100000,
|
||
100000000000100000000000100000100000100000000000,
|
||
200000000000200000200000500000000000000000000000,
|
||
000000000000000000000000000000000080000000000000,
|
||
#GOGOEND
|
||
400000000000300000000000000000000000300000000000,
|
||
000000000000300000000000000000000000300000000000,
|
||
400000000000300000000000000000000000300000000000,
|
||
000000000000300000000000000000000000300000000000,
|
||
300000000000100000100000100000000000100000000000,
|
||
100000000000100000100000000000100000100000000000,
|
||
000000000000100000100000100000000000100000000000,
|
||
100000000000100000100000000000100000100000000000,
|
||
000000000000100000000000100000000000200000000000,
|
||
200000000000100000000000100000100000100000000000,
|
||
100000000000100000000000100000100000100000000000,
|
||
200000000000200000000000200000000000200000000000,
|
||
000000000000100000100000100000000000100000000000,
|
||
100000000000100000100000000000100000100000000000,
|
||
000000000000100000100000100000000000100000000000,
|
||
100000000000100000100000000000100000100000000000,
|
||
000000000000100000000000100000000000200000000000,
|
||
200000000000100000000000100000100000100000000000,
|
||
100000000000100000000000100000100000100000000000,
|
||
200000000000200000000000200000000000200000000000,
|
||
100000000000000000100000100000000000200000000000,
|
||
100000000000000000100000100000000000200000000000,
|
||
100000000000000000100000100000000000200000000000,
|
||
100000000000100000000000200000000000200000000000,
|
||
100000000000000000100000100000000000200000000000,
|
||
100000000000000000100000100000000000200000000000,
|
||
100000000000000000100000100000000000500000000000,
|
||
000000000000000000000080000000000000000000000000,
|
||
100000000000000000100000100000000000200000000000,
|
||
100000000000000000100000100000000000200000000000,
|
||
100000000000100000000000200000000000200000000000,
|
||
100000000000100000000000000000200000200000200000,
|
||
000000100000100000100000000000200000200000200000,
|
||
000000100000100000000000200000000000200000200000,
|
||
900000000000000000000000000000000000000000000000,
|
||
000000000000000000800000000000000000000000000000,
|
||
900000000000000000000000000000000000000000000000,
|
||
000000000000000000800000000000000000100000100000,
|
||
#GOGOSTART
|
||
100000000000100000000000100000000000100000100000,
|
||
100000000000100000000000100000100000100000000000,
|
||
100000000000100000100000000000100000100000000000,
|
||
100000100000000000000000000000000000100000100000,
|
||
100000000000100000000000100000000000100000100000,
|
||
100000000000100000000000100000100000100000000000,
|
||
200000000000200000200000500000000000000000000000,
|
||
000000000000000000000080000000000000100000100000,
|
||
100000000000100000000000100000000000100000100000,
|
||
100000000000100000000000100000100000100000000000,
|
||
100000000000100000100000000000100000100000000000,
|
||
100000100000000000000000000000000000100000100000,
|
||
100000000000100000000000100000000000100000100000,
|
||
100000000000100000000000100000100000100000000000,
|
||
200000000000200000200000500000000000000000000000,
|
||
000000000000000000000000
|
||
#GOGOEND
|
||
000000000080000000000000,
|
||
300000000000000000000000000000000000000000000000,
|
||
300000000000000000000000000000000000000000000000,
|
||
300000000000000000000000000000000000000000000000,
|
||
100000100000100000000000200000000000200000000000,
|
||
100000100000100000000000200000000000200000000000,
|
||
500000000000000000000000000000000000000000000080,
|
||
000000000000000000000000300000000000000000000000,
|
||
|
||
|
||
#END
|
||
|
||
|
||
COURSE:Easy
|
||
LEVEL:3
|
||
BALLOON:9,9
|
||
SCOREINIT:650
|
||
SCOREDIFF:240
|
||
|
||
|
||
#START
|
||
|
||
|
||
000000000000000000000000000000000000000000000000,
|
||
000000000000000000000000000000000000000000000000,
|
||
000000000000000000000000000000000000000000000000,
|
||
000000000000000000000000000000000000000000000000,
|
||
000000000000000000000000000000000000000000000000,
|
||
#GOGOSTART
|
||
100000000000100000000000100000000000000000000000,
|
||
100000000000100000000000100000000000000000000000,
|
||
100000000000000000000000100000000000000000000000,
|
||
100000000000000000000000000000000000000000000000,
|
||
100000000000100000000000100000000000000000000000,
|
||
100000000000100000000000200000000000200000000000,
|
||
100000000000000000000000500000000000000000000000,
|
||
000000000000000000000000000000000080000000000000,
|
||
#GOGOEND
|
||
000000000000300000000000000000000000300000000000,
|
||
000000000000300000000000000000000000300000000000,
|
||
000000000000300000000000000000000000300000000000,
|
||
000000000000300000000000000000000000300000000000,
|
||
000000000000100000000000100000000000100000000000,
|
||
000000000000100000000000000000000000100000000000,
|
||
000000000000100000000000100000000000100000000000,
|
||
000000000000100000000000000000000000100000000000,
|
||
000000000000100000000000100000000000200000000000,
|
||
200000000000100000000000100000000000100000000000,
|
||
000000000000100000000000000000000000100000000000,
|
||
200000000000200000000000200000000000200000000000,
|
||
000000000000100000000000100000000000100000000000,
|
||
000000000000100000000000000000000000100000000000,
|
||
000000000000100000000000100000000000100000000000,
|
||
000000000000100000000000000000000000100000000000,
|
||
000000000000100000000000100000000000200000000000,
|
||
200000000000100000000000100000000000100000000000,
|
||
000000000000100000000000000000000000100000000000,
|
||
200000000000200000000000200000000000200000000000,
|
||
100000000000000000000000200000000000200000000000,
|
||
100000000000000000000000200000000000200000000000,
|
||
100000000000000000000000200000000000200000000000,
|
||
100000000000000000000000000000000000000000000000,
|
||
100000000000000000000000200000000000200000000000,
|
||
100000000000000000000000200000000000200000000000,
|
||
100000000000100000000000100000000000500000000000,
|
||
000000000000000000000080000000000000000000000000,
|
||
100000000000100000000000000000000000200000000000,
|
||
100000000000100000000000000000000000200000000000,
|
||
100000000000100000000000200000000000200000000000,
|
||
100000000000100000000000000000000000200000000000,
|
||
000000000000100000000000000000000000200000000000,
|
||
000000000000100000000000000000000000200000000000,
|
||
900000000000000000000000000000000000000000000000,
|
||
000000000000800000000000000000000000000000000000,
|
||
900000000000000000000000000000000000000000000000,
|
||
000000000000800000000000000000000000000000000000,
|
||
#GOGOSTART
|
||
100000000000100000000000100000000000000000000000,
|
||
100000000000100000000000100000000000000000000000,
|
||
100000000000000000000000100000000000000000000000,
|
||
100000000000000000000000000000000000000000000000,
|
||
100000000000100000000000100000000000000000000000,
|
||
100000000000100000000000200000000000200000000000,
|
||
100000000000000000000000500000000000000000000000,
|
||
000000000000000000000080000000000000000000000000,
|
||
100000000000100000000000100000000000000000000000,
|
||
100000000000100000000000100000000000000000000000,
|
||
100000000000000000000000100000000000000000000000,
|
||
100000000000000000000000000000000000000000000000,
|
||
100000000000100000000000100000000000000000000000,
|
||
100000000000100000000000200000000000200000000000,
|
||
100000000000000000000000500000000000000000000000,
|
||
000000000000000000000000
|
||
#GOGOEND
|
||
000000000080000000000000,
|
||
300000000000000000000000000000000000000000000000,
|
||
300000000000000000000000000000000000000000000000,
|
||
300000000000000000000000000000000000000000000000,
|
||
100000000000100000000000200000000000200000000000,
|
||
100000000000100000000000200000000000200000000000,
|
||
500000000000000000000000000000000000000000000080,
|
||
000000000000000000000000300000000000000000000000,
|
||
|
||
|
||
#END
|
||
|