Files
ESE/07 Game Music/The Legend of Zelda Medley/The Legend of Zelda Medley.tja
T
2023-06-15 19:15:39 -05:00

321 lines
4.3 KiB
Plaintext

//TJADB Project
TITLE:The Legend of Zelda Medley
TITLEJA:ゼルダの伝説
SUBTITLE:--Koji Kondo/The Legend of Zelda
BPM:150.16
WAVE:The Legend of Zelda Medley.ogg
OFFSET:-1.908
DEMOSTART:31.459
COURSE:Oni
LEVEL:7
SCOREINIT:960
SCOREDIFF:305
#START
#GOGOSTART
300300400111,
100300400111,
100300400301,
#MEASURE 6/4
200222200000
#GOGOEND
#BPMCHANGE 148.78
000000,
#MEASURE 4/4
#BPMCHANGE 90.17
10102112,
1110000020000000,
10102112,
1110000020000000,
2021202120212121,
2021202120212121,
#BPMCHANGE 150.37
100000001222,
#BPMCHANGE 150.24
201200001222,
201200001222,
2011101110111010,
#GOGOSTART
200000000000100010001000100000000100100100100100,
100111100122,
200111122122,
102111100211,
101211100221,
101211100211,
101211100200,
1011101110111010,
100000000000100010001000100000000100100100100100,
100111100122,
200111100200,
100111100100,
211222200200,
100111100100,
211222200200,
100111100100,
200121100200,
100121100100,
2022200000002000,
#BPMCHANGE 149.38
1011101110111010,
#GOGOEND
#MEASURE 11/8
#BPMCHANGE 150.24
300000300000300000600000000000000000000008000000
#BPMCHANGE 139.54
000000000000,
#MEASURE 1/4
#BPMCHANGE 150.5
101,
#BARLINEOFF
#MEASURE 4/4
#BPMCHANGE 150.24
200000000000100010001000100000000000100100200200,
#BARLINEON
200000000000100100100100200000000000100000001000,
200000000000100010001000200000000000100100200200,
200000000000100100100100200000000000100000001000,
2,
#END
COURSE:Hard
LEVEL:6
SCOREINIT:910
SCOREDIFF:303
#START
#GOGOSTART
300300400111,
100300400111,
100300400301,
#MEASURE 6/4
100222200000
#GOGOEND
#BPMCHANGE 148.78
000000,
#MEASURE 4/4
#BPMCHANGE 90.17
10000112,
1110000000000000,
10000112,
1110000000000000,
1011101110111010,
1011101110111010,
#BPMCHANGE 150.37
100000001111,
#BPMCHANGE 150.24
101100001111,
101100001111,
10101011,
#GOGOSTART
100111100100,
100111100100,
100111100100,
100111100200,
1011100010002010,
1011100010002010,
1011100010002000,
1011101110111010,
100111100100,
100111100100,
100111100200,
100111100200,
101222200200,
100111100200,
101222200200,
100111100200,
101222200200,
100111100200,
1011100010002000,
#BPMCHANGE 149.38
1011101110111010,
#GOGOEND
#MEASURE 11/8
#BPMCHANGE 150.24
300000300000300000600000000000000000000008000000
#BPMCHANGE 139.54
000000000000,
#MEASURE 1/4
#BPMCHANGE 150.5
1,
#MEASURE 4/4
#BARLINEOFF
#BPMCHANGE 150.24
100111100100,
#BARLINEON
2000111110001000,
100111100100,
200000000000200200200200200000000000100000001000,
1,
#END
COURSE:Normal
LEVEL:4
BALLOON:4
SCOREINIT:1320
SCOREDIFF:865
#START
#GOGOSTART
3330,
3330,
3333,
#MEASURE 6/4
70000800
#GOGOEND
#BPMCHANGE 148.78
0000,
#MEASURE 4/4
#BPMCHANGE 90.17
10000111,
1,
10000111,
1,
10101110,
10101110,
#BPMCHANGE 150.37
3001,
#BPMCHANGE 150.24
1001,
1001,
500000000000000000000000000008000000000000000000,
#GOGOSTART
1110,
1110,
1110,
1102,
1102,
1102,
1102,
500000000000000000000000000008000000000000000000,
1110,
1110,
1112,
1102,
1112,
1102,
1112,
1102,
1112,
1102,
1102,
#BPMCHANGE 149.38
500000000000000000000000000008000000000000000000,
#GOGOEND
#MEASURE 11/8
#BPMCHANGE 150.24
300000300000300000600000000000000000000008000000
#BPMCHANGE 139.54
000000000000,
#MEASURE 1/4
#BPMCHANGE 150.5
1,
#MEASURE 4/4
#BARLINEOFF
#BPMCHANGE 150.24
1001,
#BARLINEON
1001,
1001,
1003,
3,
#END
COURSE:Easy
LEVEL:3
SCOREINIT:1130
SCOREDIFF:1088
#START
#GOGOSTART
3330,
3330,
3330,
#MEASURE 6/4
500000000000000000000000000008000000000000000000
#GOGOEND
#BPMCHANGE 148.78
000000000000000000000000,
#MEASURE 4/4
#BPMCHANGE 90.17
1,
1,
1,
1,
1120,
1120,
#BPMCHANGE 150.37
1,
#BPMCHANGE 150.24
1,
1,
500000000000000000000000000008000000000000000000,
#GOGOSTART
11,
1110,
11,
1110,
11,
1110,
11,
500000000000000000000000000008000000000000000000,
12,
1110,
12,
1100,
1120,
1100,
1120,
1100,
1120,
1100,
1120,
#BPMCHANGE 149.38
500000000000000000000000000008000000000000000000,
#GOGOEND
#MEASURE 11/8
#BPMCHANGE 150.24
600000000000000000000000000000000000000000000008
#BPMCHANGE 139.54
000000000000,
#MEASURE 1/4
#BPMCHANGE 150.5
1,
#MEASURE 4/4
#BARLINEOFF
#BPMCHANGE 150.24
1001,
#BARLINEON
1001,
1001,
1003,
3,
#END