Files
ESE/07 Game Music/Unite the Force/Unite the Force.tja
T
2023-06-15 19:05:10 -05:00

281 lines
4.0 KiB
Plaintext

//TJADB Project
TITLE:Unite the Force
TITLEJA:Unite The Force
SUBTITLE:--Kenji Itoh/Puzzle & Dragons
SUBTITLEJA:「パズル&ドラゴンズ」より
BPM:156
WAVE:Unite the Force.ogg
OFFSET:-1.809
DEMOSTART:38.724
COURSE:Oni
LEVEL:8
BALLOON:3,3,3,14,7,3,3,3
SCOREINIT:700
SCOREDIFF:150
#START
#GOGOSTART
30430470,
8010201011112000,
30430470,
8020202011111000,
30430470,
8010202011121000,
6,
000008000000100200200200100200200200100200200200,//8
#GOGOEND
1000201000102220,
10210122,
10210122,
1000201000102220,
1110201000201120,
1110201000201120,
1110201000201120,
1011201000111000,
1110201210102012,
1020112210201122,
1110201210102012,
1020112210201000,
1110201210202222,
1110201210201122,
500000000000000000000000000000000000000008000000,
7008,//24
#GOGOSTART
1110201122102012,
1010201121102000,
1111201120102011,
2010211121102000,
1110202212102012,
1010201121102000,
1111201110201111,
2010211121112000,
1210202212102021,
1010201111212020,
1111202110201120,
0011101022121020,
1122121122121122,
1211221211121112,
500000000008000000100200700000000000000800000000,
0011202011112000,
500000000000000000000008000000100000200000500000,
000000000000000000000000000008000000200200200000,
30430470,
8010201011112000,
30430470,
8020202011111000,
30430470,
8010202011121000,
6,
000008000000100200200200100200200200100200200200,//50
#BARLINEOFF
#GOGOEND
1,
#END
COURSE:Hard
LEVEL:7
BALLOON:6,6,6,10,6,6,6
#START
#GOGOSTART
30430470,
00081010,
30430470,
00081020,
30430470,
00081010,
6,
000000000000000000000000000000000000000008000000,//8
#GOGOEND
10210122,
10210122,
10210122,
1000201000102220,
10210122,
10210122,
1000201000102220,
10210300,
1110200010102000,
1110200010102020,
1110200010102000,
1110200010102020,
1110201000102000,
1110201000102000,
500000000000000000000000000000000000000008000000,
7008,//24
#GOGOSTART
1110201000102010,
0011102000102000,
1110202010002010,
1000201000111000,
1110201000102010,
0011102000102000,
1110201000102020,
1110200011102000,
1110201000102010,
0011102000102020,
100100100000200000100100500000000000000000000008,
0010201011102000,
1110201110201110,
2011102011101020,
500000000000000000000000000000000000000000000008,
0010202011102000,
500000000000000000000008000000100000200000500000,
000000000000000000000000000000000000000008000000,
30430470,
0000008011101000,
30430470,
0000008011102000,
30430470,
0000008011111000,
6,
000008000000100100100000100100100100100100100000,//50
#BARLINEOFF
#GOGOEND
3,
#END
COURSE:Normal
LEVEL:4
BALLOON:16,16,16,7,10,7,10,10,10
#START
#GOGOSTART
7,
0008,
7,
0008,
7,
0008,
6,
000000000000000000000000000000000008000000000000,//8
#GOGOEND
1101,
1101,
1101,
1,
1102,
1102,
1102,
1,
10110000,
10110000,
20220000,
20220000,
10110010,
10110010,
500000000000000000000000000000000000000008000000,
7008,//24
#GOGOSTART
10110110,
10110110,
500000000000000000000000000000000008000000000000,
20220220,
10110110,
10110110,
500000000000000000000000000000000008000000000000,
2222,
10110110,
10110110,
500000000000000000000000000000000008000000000000,
01010110,
33033033,
03303030,
9009,
8,
600000000000000000000000000000000008000000700000,
0008,
30030070,
0008,
30040070,
0008,
30030070,
0008,
6,
000000000000000000000000000000000000000000000008,//50
#BARLINEOFF
#GOGOEND
,
#END
COURSE:Easy
LEVEL:2
BALLOON:9,9,9,4,4,4,4,4,4,4
#START
#GOGOSTART
7,
00000800,
7,
00000800,
7,
00000800,
6,
000000000000000000000000000008000000000000000000,//8
#GOGOEND
1,
11,
2,
22,
1,
11,
2,
3,
11,
1110,
22,
2220,
30030000,
30030000,
500000000000000000000000000000000000000008000000,
7008,//24
#GOGOSTART
1101,
0101,
1101,
0101,
1101,
0101,
1101,
7008,
2202,
0202,
2202,
0202,
30030030,
03003000,
9009,
8,
600000000000000000000000000000000008000000700000,
0008,
30030070,
00000800,
30030070,
00000800,
30030070,
00000800,
6,
000000000000000000000000000000000000000000000008,//50
#BARLINEOFF
#GOGOEND
,
#END