Files
ESE/07 Game Music/Visionary/Visionary.tja
T
2023-06-15 19:00:23 -05:00

445 lines
17 KiB
Plaintext
Raw Blame History

This file contains ambiguous Unicode characters
This file contains Unicode characters that might be confused with other characters. If you think that this is intentional, you can safely ignore this warning. Use the Escape button to reveal them.
//TJADB Project
TITLE:Visionary
TITLEJA:ビジョナリー
SUBTITLE:--Koji Nakagawa feat. Mayako Nigo/THE iDOLM@STER SHINY FESTA: Funky Note
BPM:159
WAVE:Visionary.ogg
OFFSET:-1.701
DEMOSTART:54.531
COURSE:Oni
LEVEL:8
BALLOON:4,7
SCOREINIT:510
SCOREDIFF:125
#START
100000100000200000100000000000100000200000100000,
100000000000200000000000100000200000200000000000,
100000200000200000100000000000200200200000100000,
100000200000100000000000100000200000100000200000,
100000100000200000100000000000100000200000100000,
100000000000200000000000100000200000200200200000,
100100100000200000200000100100100000200000200000,
300000000000300000200200100000000000000000000000,
100000000000200000100000100000000000200000100000,
100000000000200000100000100000100000200000000000,
100000000000200000100100100000100000200000100000,
100000000000200000000000100000200200200000100000,
100000000000200000100000100000000000200000100000,
100000000000200000100000100000100000200000000000,
100000100100100000100000100000100100100000200000,
000000300000300000300000300000000100200200100000,
100000000000200000100000100000000000200000100000,
100000000000200000100000100000100000200000000000,
100000000000200000100100100000100000200000100000,
100000000000200000000000100000200200200000200200,
100000000000200000100000100000000000200000100000,
100000000000200000100000100000100000200200200000,
100000100100100000100100100000100000100000200000,
000000300000300000300000300000000000000000000000,
100000100000200000200000100000000000200000100000,
200000100100200000100000100000200000200000000000,
100000100000200000200000100000000000200000100000,
200000100100200000100000200000200200200000200200,
100000100000200000200100100000100000200000200100,
100000100000200000200100100000200100000200100000,
500000000000000000000000000008000000000000000000,
400000400000400000400000400000000000400000400000,
400000400000400000000000400000000000000000000000,
100000100000000000100000100000100000100000200200,
200000200000200000000000200000000000200200100100,
#GOGOSTART
100000100000200000200100100000100000200000200000,
100000200200200000100000000000100000200000000000,
100000100100200000200000100000100100200000100000,
100000200200200000100000000000100000400000200200,
100000100000200000200100100000100000200000200000,
100000200200200000100000000000100000200200100000,
200000100100200000100100200000100000000000300000,
000000000000700000000000000000800000000000000000,
100000100000200000200100100000100000200000200000,
100000200200200000100000000000100000200000000000,
100000100000200000200000
#GOGOEND
#SCROLL 3
300000000000000000000000,
#SCROLL 1
100000000000100000000000100000200000200000200200,
#GOGOSTART
100000100000200000200100100000100000200000200000,
100000200200200000100000000000100000200200100000,
#MEASURE 6/4
100000100000200000200100100000100000200000100100200000100100200000100100,
#MEASURE 4/4
200000100100100000100100100000100100100000100100,
100000200200100000200200100000200200100000200200,
100000100100100000100100100000100100100000100100,
200200200200100000300000200200100000202020200200,
#GOGOEND
100000000000200000000000100000100000200000100000,
000000100000200000100000000000100000200000100000,
200000000000200000000000100000100000200000100000,
000000100000200000100000100000100000200000100100,
100000100000200000100000000000100100200000100000,
000000100000200000100000000000100200200000200000,
100000100000200000100000000000100100200000100200,
100000100000200000100200100100200000200000100000,
500000000000000000000000000008000000000000000000,
100000000000000000000000100000000000000000000000,
100000000000100000100000000000100000100000000000,
100000100000000000000000100000100000000000000000,
200000000000200000200000000000400000400000000000,
100000000000000000000000100000000000000000000000,
100000100000200000100000000000100000200000100000,
200000100100200000100100200000100000000000300000,
#MEASURE 6/4
000000200200200000100000700000000000000000000000800000000000000000000000,
#GOGOSTART
#MEASURE 4/4
100000100000200000200100100000100000200000200000,
100000200200200000100000000000100000200000000000,
100000100100200000200000100000100100200000100000,
100000200200200000100000000000300000300000200200,
100000100000200000200100100000100000200000200000,
100000200200200000100000000000100000200200000000,
100000100000200000200100100000100000200000200100,
100000200100100000200100100000100000200000300000,
000000200200100000200200100000100000200000300000,
000000200100100000200100100000000000100000000000,
#GOGOEND
#END
COURSE:Hard
LEVEL:6
BALLOON:4,6
SCOREINIT:560
SCOREDIFF:153
#START
000000000000000000000000000000000000000000000000,
000000000000000000000000000000000000000000000000,
000000000000100000000000000000000000100000000000,
000000000000100000000000100000000000100000000000,
000000000000100000000000000000000000100000000000,
000000000000200000000000200000200000200000000000,
100000100000200000200000100000100000200000200000,
300000000000300000000000300000000000000000000000,
100000000000200000100000100000000000200000100000,
100000000000200000100000100000100000200000000000,
100000000000200000100000100000100000200000000000,
100000000000100000000000200000000000000000000000,
100000000000200000100000100000000000200000100000,
100000000000200000100000100000100000200000000000,
500000000000000000000000000000800000000000000000,
000000300000000000300000300000000000000000000000,
100000000000200000100000100000000000200000100000,
100000000000200000100000100000100000200000000000,
100000000000200000100000100000100000200000000000,
100000000000100000000000200000000000000000000000,
100000000000200000100000100000000000200000100000,
100000000000200000100000100000100000200000000000,
500000000000000000000000000000800000000000000000,
000000300000000000300000300000000000000000000000,
100000000000100000100000100000000000400000000000,
100000000000100000100000100000000000400000000000,
100000000000100000100000100000000000400000000000,
100000000000100000100000100000000000400000000000,
100000100000200000200000100000100000200000200000,
100000100000200000200000100000000100000000100000,
500000000000000000000000000800000000000000000000,
400000400000400000400000400000000000400000400000,
400000400000400000000000400000000000000000000000,
100000100000000000100000100000100000100000200000,
200000200000200000000000200000000000000000000000,
#GOGOSTART
100000100000200000000000100000100000200000200000,
100000200200200000100000000000100000200000000000,
100000100000200000200000100000100000200000200000,
100000200200200000100000000000000000400000000000,
100000100000200000200000100000100000200000200000,
100000200200200000100000000000100000200000000000,
200000000000200000000000100000100000000000300000,
000000000000700000000000000000000800000000000000,
100000100000200000000000100000100000200000200000,
100000200200200000100000000000100000200000000000,
100000100000200000200000
#GOGOEND
300000000000000000000000,
100000000000100000000000100000200000200000100100,
#GOGOSTART
100000100000200000200000100000100000200000200000,
100000200200200000100000000000100000200000000000,
#MEASURE 6/4
100000100000200000200000100000100000200000200000100000100100100000100000,
#MEASURE 4/4
500000000000000000000000800000000000000000000000,
100000200000100000200000100000200000100000200000,
500000000000000000000000800000000000000000000000,
300000000000300000300000000000000000000000000000,
#GOGOEND
000000000000100000000000000000000000100000000000,
000000000000100000000000000000000000100000000000,
000000000000200000000000000000000000200000000000,
000000000000200000000000000000000000200000100100,
100000000000200000100000000000100000200000100000,
000000100000200000100000000000100000200000200000,
100000000000200000100000000000100000200000200000,
000000200000200000100000000000100000200000200000,
500000000000000000000000800000000000000000000000,
100000000000000000000000100000000000000000000000,
100000000000100000100000000000100000100000000000,
100000100000000000000000100000100000000000000000,
200000000000200000200000000000400000400000000000,
100000000000000000000000100000000000000000000000,
100000100000200000100000000000100000200000000000,
200000000000200000000000100000100000000000300000,
#MEASURE 6/4
000000000000000000000000700000000000000000000000800000000000000000000000,
#MEASURE 4/4
#GOGOSTART
100000100000200000000000100000100000200000200000,
100000200200200000100000000000100000200000000000,
100000100000200000200000100000100000200000200000,
100000200200200000100000000000300000300000000000,
100000100000200000000000100000100000200000200000,
100000200200200000100000000000100000200000000000,
100000100000200000200000100000100000200000200000,
100000100100100000100000100000000000000000400000,
000000200200200000200000200000000000000000300000,
000000100100100000100000100000000000100000000000,
#GOGOEND
#END
COURSE:Normal
LEVEL:5
BALLOON:4,4,2
SCOREINIT:620
SCOREDIFF:190
#START
000000000000000000000000000000000000000000000000,
000000000000000000000000000000000000000000000000,
000000000000100000000000000000000000100000000000,
000000000000100000000000100000000000100000000000,
000000000000100000000000000000000000100000000000,
000000000000200000000000200000000000200000000000,
300000300000000000000000300000300000000000000000,
300000000000300000000000300000000000000000000000,
100000000000000000000000100000000000000000000000,
100000000000000000000000100000100000100000000000,
100000000000000000000000100000000000000000000000,
200000000000200000000000200000000000000000000000,
100000000000000000000000100000000000000000000000,
100000000000000000000000100000100000100000000000,
500000000000000000000000000000800000000000000000,
000000300000000000300000300000000000000000000000,
100000000000000000000000100000000000000000000000,
100000000000000000000000100000100000100000000000,
100000000000000000000000100000000000000000000000,
200000000000200000000000200000000000000000000000,
100000000000000000000000100000000000000000000000,
100000000000000000000000100000100000100000000000,
500000000000000000000000000000800000000000000000,
000000300000000000300000300000000000000000000000,
500000000000000000800000000000000000400000000000,
500000000000000000800000000000000000400000000000,
500000000000000000800000000000000000400000000000,
500000000000000000800000000000000000400000000000,
100000000000100000000000100000100000100000000000,
100000000000100000000000100000000000000000000000,
500000000000000000000000800000000000000000000000,
400000000000400000000000400000000000000000000000,
400000000000400000000000400000000000000000000000,
100000000000100000000000100000000000100000000000,
200000000000200000000000200000000000000000000000,
#GOGOSTART
100000000000100000000000100000000000100000000000,
300000000000300000300000000000000000000000000000,
200000000000200000000000200000000000200000000000,
300000000000300000300000000000000000400000000000,
100000000000100000000000100000000000100000000000,
300000000000300000300000000000000000000000000000,
200000000000200000000000200000200000000000300000,
000000000000700000000000000000800000000000000000,
100000000000100000000000100000000000100000000000,
300000000000300000300000000000000000000000000000,
200000000000200000000000
#GOGOEND
400000000000000000000000,
000000000000000000000000000000000000200000000000,
#GOGOSTART
100000000000100000000000100000000000100000000000,
300000000000300000300000000000000000000000000000,
#MEASURE 6/4
100000100000100000000000100000000000100000000000200000200000200000000000,
#MEASURE 4/4
500000000000000000000000800000000000000000000000,
100000000000100000000000100000100000100000000000,
500000000000000000000000800000000000000000000000,
300000000000300000300000000000000000000000000000,
#GOGOEND
000000000000100000000000000000000000100000000000,
000000000000100000000000000000000000100000000000,
000000000000200000000000000000000000200000000000,
000000000000200000000000000000000000200000000000,
100000000000100000000000100000000000100000000000,
200000000000200000000000200000000000200000000000,
100000000000100000000000100000100000100000000000,
200000000000200000000000200000200000200000000000,
500000000000000000000000800000000000000000000000,
100000000000000000000000100000000000000000000000,
100000000000100000100000000000000000000000000000,
100000000000000000000000100000000000000000000000,
200000000000200000200000000000400000400000000000,
100000000000000000000000100000000000000000000000,
100000000000100000100000000000100000100000000000,
200000000000200000000000200000200000000000300000,
#MEASURE 6/4
000000000000000000000000700000000000000000800000000000000000000000000000,
#MEASURE 4/4
#GOGOSTART
100000000000100000000000100000000000100000000000,
300000000000300000300000000000000000000000000000,
200000000000200000000000200000000000200000000000,
300000000000300000300000000000700000000800000000,
100000000000100000000000100000000000100000000000,
300000000000300000300000000000000000000000000000,
100000100000100000000000100000000000100000000000,
200000200000200000000000200000000000000000300000,
000000100000100000100000100000000000000000400000,
000000200000200000200000200000000000100000000000,
#GOGOEND
#END
COURSE:Easy
LEVEL:3
BALLOON:4,4,4,2
SCOREINIT:500
SCOREDIFF:165
#START
000000000000000000000000000000000000000000000000,
000000000000000000000000000000000000000000000000,
000000000000100000000000000000000000100000000000,
000000000000100000000000100000000000100000000000,
000000000000100000000000000000000000100000000000,
000000000000100000000000100000000000100000000000,
300000000000000000000000300000000000000000000000,
300000000000300000000000300000000000000000000000,
100000000000000000000000100000000000000000000000,
100000000000000000000000100000000000100000000000,
100000000000000000000000100000000000000000000000,
200000000000200000000000200000000000000000000000,
100000000000000000000000100000000000000000000000,
100000000000000000000000100000000000100000000000,
500000000000000000000000000000800000000000000000,
000000300000000000000000000000000000000000000000,
100000000000000000000000100000000000000000000000,
100000000000000000000000100000000000100000000000,
100000000000000000000000100000000000000000000000,
200000000000200000000000200000000000000000000000,
100000000000000000000000100000000000000000000000,
100000000000000000000000100000000000100000000000,
500000000000000000000000000000800000000000000000,
000000300000000000000000000000000000000000000000,
500000000000000000800000000000000000400000000000,
500000000000000000800000000000000000400000000000,
500000000000000000800000000000000000400000000000,
500000000000000000800000000000000000400000000000,
100000000000000000000000100000000000000000000000,
100000000000100000000000100000000000000000000000,
500000000000000000000000800000000000000000000000,
400000000000400000000000400000000000000000000000,
400000000000400000000000400000000000000000000000,
100000000000100000000000100000000000000000000000,
200000000000200000000000200000000000000000000000,
#GOGOSTART
100000000000100000000000100000000000000000000000,
300000000000000000300000000000000000000000000000,
200000000000200000000000200000000000000000000000,
300000000000000000300000000000000000400000000000,
100000000000100000000000100000000000000000000000,
300000000000000000300000000000000000000000000000,
200000000000200000000000200000000000000000300000,
000000000000700000000000000000800000000000000000,
100000000000100000000000100000000000000000000000,
300000000000000000300000000000000000000000000000,
200000000000200000000000
#GOGOEND
400000000000000000000000,
000000000000000000000000000000000000200000000000,
#GOGOSTART
100000000000100000000000100000000000000000000000,
300000000000000000300000000000000000000000000000,
#MEASURE 6/4
100000000000100000000000100000000000000000000000200000000000200000000000,
#MEASURE 4/4
500000000000000000000000800000000000000000000000,
100000000000100000000000100000000000100000000000,
500000000000000000000000800000000000000000000000,
900000000000000000000000800000000000000000000000,
#GOGOEND
000000000000000000000000000000000000100000000000,
000000000000000000000000000000000000100000000000,
000000000000000000000000000000000000200000000000,
000000000000000000000000000000000000200000000000,
000000000000100000000000000000000000100000000000,
000000000000200000000000000000000000200000000000,
000000000000100000000000100000000000100000000000,
000000000000200000000000200000000000200000000000,
500000000000000000000000800000000000000000000000,
100000000000000000000000000000000000000000000000,
100000000000000000000000000000000000000000000000,
100000000000000000000000100000000000000000000000,
100000000000000000000000000000000000200000000000,
100000000000000000000000100000000000000000000000,
100000000000000000000000000000000000000000000000,
200000000000200000000000200000000000000000300000,
#MEASURE 6/4
000000000000000000000000700000000000000000800000000000000000000000000000,
#MEASURE 4/4
#GOGOSTART
100000000000100000000000100000000000000000000000,
300000000000000000300000000000000000000000000000,
200000000000200000000000200000000000000000000000,
300000000000000000300000000000700000000800000000,
100000000000100000000000100000000000000000000000,
300000000000000000300000000000000000000000000000,
100000000000100000000000100000000000000000000000,
200000000000200000000000200000000000000000300000,
000000000000100000000000100000000000000000400000,
000000000000200000000000200000000000100000000000,
#GOGOEND
#END