378 lines
4.8 KiB
Plaintext
378 lines
4.8 KiB
Plaintext
//TJADB Project
|
||
TITLE:edeN
|
||
TITLEJA:edeN
|
||
SUBTITLE:--kyo feat. Akiko Hasegawa/THE iDOLM@STER SHINY FESTA: Groovy Tune
|
||
BPM:145
|
||
WAVE:edeN.ogg
|
||
OFFSET:-1.831
|
||
DEMOSTART:64.126
|
||
|
||
COURSE:Oni
|
||
LEVEL:8
|
||
BALLOON:18
|
||
SCOREINIT:430
|
||
SCOREDIFF:110
|
||
NOTESDESIGNER3:Kuboken
|
||
|
||
|
||
#START
|
||
|
||
|
||
#GOGOSTART
|
||
1120102011201022,
|
||
1120102011201021,
|
||
1120201020112021,
|
||
1120201020212020,
|
||
1120102011201022,
|
||
1120102011201021,
|
||
1120201020112021,
|
||
1122112211212010,
|
||
|
||
#GOGOEND
|
||
0000200200102012,
|
||
1100200200102012,
|
||
1100200200102012,
|
||
1100200202222222,
|
||
1011201010110210,
|
||
1010201010122011,
|
||
1011201010110210,
|
||
1010201010122011,
|
||
1011201010110210,
|
||
1010201201202010,
|
||
0011200020220220,
|
||
0011101010210210,
|
||
1011201110110210,
|
||
1011201010122011,
|
||
1011201110110210,
|
||
1011201010122011,
|
||
1010201110110210,
|
||
1021201201202010,
|
||
0011200020220220,
|
||
1222122212112010,
|
||
1001201010012010,
|
||
1001202210210012,
|
||
1001201010012010,
|
||
1001202210012012,
|
||
1010201011112022,
|
||
1010201011122022,
|
||
1010201011222022,
|
||
1220202211221022,
|
||
1110111011101110,
|
||
1222122210303030,
|
||
|
||
#GOGOSTART
|
||
3001201210012011,
|
||
1001201220102021,
|
||
1012202022112222,
|
||
1022102010212020,
|
||
3001201110012011,
|
||
1001201220102021,
|
||
1012202210112012,
|
||
1222122210112010,
|
||
1001201210212022,
|
||
1001201210221012,
|
||
1001201210212022,
|
||
1001201210221012,
|
||
1022201201202011,
|
||
2000222022202220,
|
||
7,
|
||
00080333,
|
||
3001201210012011,
|
||
1001201220102021,
|
||
1012202022112222,
|
||
1022102010212020,
|
||
3001201110012011,
|
||
1001201220102021,
|
||
1012202210112012,
|
||
1222122210112010,
|
||
1001201210212022,
|
||
1001201210221012,
|
||
1001201210212022,
|
||
1001201210221012,
|
||
1022201201202011,
|
||
2000222022202220,
|
||
5,
|
||
000000000000000000000000000000000000000000000008,
|
||
|
||
#GOGOEND
|
||
|
||
|
||
#END
|
||
|
||
|
||
COURSE:Hard
|
||
LEVEL:6
|
||
BALLOON:18,18,18
|
||
SCOREINIT:720
|
||
SCOREDIFF:203
|
||
|
||
|
||
#START
|
||
|
||
|
||
#GOGOSTART
|
||
,
|
||
,
|
||
0101,
|
||
0333,
|
||
0404,
|
||
0404,
|
||
0303,
|
||
0333,
|
||
|
||
#GOGOEND
|
||
1000200200102002,
|
||
0000200200102002,
|
||
0000200200102002,
|
||
0000200200000000,
|
||
1010201010111000,
|
||
1010202010020020,
|
||
0010201010111000,
|
||
1010202010020020,
|
||
0010201010111000,
|
||
1010201100102010,
|
||
000000200000500000000000000000000000000000000008,
|
||
,
|
||
1010201010111000,
|
||
1010202010020020,
|
||
0010201010111000,
|
||
1010202010020020,
|
||
0010201010111000,
|
||
1010201100102010,
|
||
000000200000500000000000000000000000000000000008,
|
||
,
|
||
1001101010002000,
|
||
10201120,
|
||
1001101010002000,
|
||
10201021,
|
||
10211020,
|
||
10211020,
|
||
5,
|
||
000008000000000000100000100000200000200000900000,
|
||
0009,
|
||
8,
|
||
|
||
#GOGOSTART
|
||
3004003030040030,
|
||
3004003000102010,
|
||
500000000000000000000000000000000000000000000008,
|
||
,
|
||
3004003030040030,
|
||
3004003000102010,
|
||
7,
|
||
0811,
|
||
10201021,
|
||
20211120,
|
||
10201121,
|
||
2211,
|
||
10211021,
|
||
0000222022202220,
|
||
5,
|
||
000000000000000000000008000000000000000000000000,
|
||
3004003030040030,
|
||
3004003000102010,
|
||
500000000000000000000000000000000000000000000008,
|
||
,
|
||
3004003030040030,
|
||
3004003000102010,
|
||
7,
|
||
0811,
|
||
10201021,
|
||
20211120,
|
||
10201121,
|
||
2211,
|
||
10211021,
|
||
0000222022202220,
|
||
5,
|
||
000000000000000000000000000000000000000000000008,
|
||
|
||
#GOGOEND
|
||
|
||
|
||
#END
|
||
|
||
|
||
COURSE:Normal
|
||
LEVEL:5
|
||
BALLOON:13,13,13
|
||
SCOREINIT:850
|
||
SCOREDIFF:275
|
||
|
||
|
||
#START
|
||
|
||
|
||
#GOGOSTART
|
||
,
|
||
,
|
||
0101,
|
||
0303,
|
||
0404,
|
||
0404,
|
||
0303,
|
||
0303,
|
||
|
||
#GOGOEND
|
||
0000200000002002,
|
||
0000200000002002,
|
||
0000200000002002,
|
||
0200,
|
||
1111,
|
||
11101010,
|
||
2222,
|
||
22202020,
|
||
1111,
|
||
11101110,
|
||
500000000000000000000000000000000000000000000008,
|
||
,
|
||
1111,
|
||
11101010,
|
||
2222,
|
||
22202020,
|
||
1111,
|
||
11101110,
|
||
500000000000000000000000000000000000000000000008,
|
||
,
|
||
1110,
|
||
1122,
|
||
1110,
|
||
1122,
|
||
10022000,
|
||
10022000,
|
||
5,
|
||
000008000000000000000000000000000000000000900000,
|
||
0009,
|
||
8,
|
||
|
||
#GOGOSTART
|
||
3004000030040000,
|
||
3004000000000000,
|
||
500000000000000000000000000000000000000000000008,
|
||
,
|
||
3004000030040000,
|
||
3004000000000000,
|
||
7,
|
||
0811,
|
||
10101022,
|
||
2222,
|
||
10101022,
|
||
2011,
|
||
10011011,
|
||
0222,
|
||
5,
|
||
000000000000000000000008000000000000000000000000,
|
||
3004000030040000,
|
||
3004000000000000,
|
||
500000000000000000000000000000000000000000000008,
|
||
,
|
||
3004000030040000,
|
||
3004000000000000,
|
||
7,
|
||
0811,
|
||
10101022,
|
||
2222,
|
||
10101022,
|
||
2011,
|
||
10011011,
|
||
0222,
|
||
5,
|
||
000000000000000000000000000000000000000000000008,
|
||
|
||
#GOGOEND
|
||
|
||
|
||
#END
|
||
|
||
|
||
COURSE:Easy
|
||
LEVEL:3
|
||
BALLOON:8,8,8
|
||
SCOREINIT:660
|
||
SCOREDIFF:248
|
||
|
||
|
||
#START
|
||
|
||
|
||
#GOGOSTART
|
||
,
|
||
,
|
||
0101,
|
||
0303,
|
||
0404,
|
||
0404,
|
||
0303,
|
||
0303,
|
||
|
||
#GOGOEND
|
||
0200,
|
||
0200,
|
||
0200,
|
||
0200,
|
||
1111,
|
||
1110,
|
||
2222,
|
||
2220,
|
||
1111,
|
||
1110,
|
||
500000000000000000000000000000000000000000000008,
|
||
,
|
||
1111,
|
||
1110,
|
||
2222,
|
||
2220,
|
||
1111,
|
||
1110,
|
||
500000000000000000000000000000000000000000000008,
|
||
,
|
||
11,
|
||
1122,
|
||
11,
|
||
1122,
|
||
10022000,
|
||
10022000,
|
||
5,
|
||
000008000000000000000000000000000000000000900000,
|
||
0009,
|
||
8,
|
||
|
||
#GOGOSTART
|
||
33,
|
||
3,
|
||
500000000000000000000000000000000000000000000008,
|
||
,
|
||
33,
|
||
3,
|
||
7,
|
||
0811,
|
||
1112,
|
||
2222,
|
||
2002,
|
||
2011,
|
||
1011,
|
||
1222,
|
||
5,
|
||
000000000000000000000008000000000000000000000000,
|
||
33,
|
||
3,
|
||
500000000000000000000000000000000000000000000008,
|
||
,
|
||
33,
|
||
3,
|
||
7,
|
||
0811,
|
||
1112,
|
||
2222,
|
||
2002,
|
||
2011,
|
||
1011,
|
||
1222,
|
||
5,
|
||
000000000000000000000000000000000000000000000008,
|
||
|
||
#GOGOEND
|
||
|
||
|
||
#END
|
||
|