412 lines
16 KiB
Plaintext
412 lines
16 KiB
Plaintext
//TJADB Project
|
|
TITLE:Gattai! Don Ranger Robo
|
|
TITLEJA:合体!ドンレンジャーロボ
|
|
SUBTITLE:--Linda AI-CUE feat. Ichiro Mizuki
|
|
BPM:158
|
|
WAVE:Gattai! Don Ranger Robo.ogg
|
|
OFFSET:-2.002
|
|
DEMOSTART:44.106
|
|
|
|
COURSE:Oni
|
|
LEVEL:6
|
|
BALLOON:12,5,5
|
|
SCOREINIT:520
|
|
SCOREDIFF:120
|
|
|
|
|
|
#START
|
|
|
|
|
|
100000000000000000100000000000000000100000000000,
|
|
000000100000000000000000400000000000400000000000,
|
|
700000000000000000000000000000000000000000000000,
|
|
800000000000100000000000100000100000000000000000,
|
|
100000100100100000200000100000100100100000200000,
|
|
100000100100100000200000000000100000200000000000,
|
|
100000000000100000000000100000100000000000100000,
|
|
000000000000200000000000200000000200200000200000,
|
|
100000100000000000100100100000200000000000100100,
|
|
100000200000000000100100100000200000000000000000,
|
|
100000100100200000200000100000100100200000200000,
|
|
000000000000200200000000200200000000200200000000,
|
|
100000100100200000200000100000100100200000200000,
|
|
100000100100200000200000100000100100200000000000,
|
|
100000200200200000200000100000200200200000200000,
|
|
100000200000200000000000100000200000200000000000,
|
|
100000100000200000000000100000100000200000000000,
|
|
100000100000000000100000000000000000100000000000,
|
|
100100000000100100000000100100000000100100000000,
|
|
300000000000100000100000000000000000000000000000,
|
|
|
|
#GOGOSTART
|
|
100000000000100000000000100000200200200000100000,
|
|
100000200200200000200000000000100000200000000000,
|
|
100000200000100000000000100000200200200000200000,
|
|
100000000000100000200000100200000100200000000000,
|
|
100000100000200000000000100000100000200000000000,
|
|
300000300000000000300000000000100000200000000000,
|
|
100000100100100000100000100000100000000000100000,
|
|
000000100000200000100000000000100000200000000000,
|
|
100000100000200200200000100000100000200200200000,
|
|
100000100000200200200000100000100000200200200000,
|
|
100000200000100000000000100000200000100000000000,
|
|
100100200200200000000000100200000100200000100000,
|
|
100000000000100000000000700000000000000000000800,
|
|
000000000000300000000000300000000000300000000000,
|
|
300000300000000000000000400000000000000000000000,
|
|
100000100000000000400000000000400000000000000000,
|
|
|
|
#GOGOEND
|
|
100000000000200000200000100000200200200000200000,
|
|
100000200000000000200000100000100000200000000000,
|
|
100000100000000000200000100000000000000000000000,
|
|
100100100000000000000000200000200000200000000000,
|
|
100000100000000000100000100000200200200000200000,
|
|
100000200000000000100000100000200200200000200000,
|
|
100000000000100000000000200000000000200000000000,
|
|
100000000100000000100000000000100100100000000000,
|
|
100000200200200000100000100000200200200000100000,
|
|
000000000000100000100000200000100100100000100000,
|
|
100000200200200000100000100000200200200000100000,
|
|
000000000000000000000000200200200000200000200000,
|
|
100000200000000000100000100000000000400000000000,
|
|
100000200000000000100000100000000000400000000000,
|
|
100000200000000000000000100000000000400000000000,
|
|
500000000000000000000000000000008000000000000000,
|
|
200000000000000000200000000000000000200000000000,
|
|
000000200000000000000000200000000000400000000000,
|
|
100000100000100000100000100000100000100100100000,
|
|
300000000000200000000000200000200000000000000000,
|
|
|
|
#GOGOSTART
|
|
100000000000100000000000100000200200200000100000,
|
|
100000200200200000100000000000100000200000000000,
|
|
100000200000100000000000100000200200200000200000,
|
|
100000000000200000200000100200000100200000000000,
|
|
100000100000200000000000100000100000200000000000,
|
|
300000300000000000300000000000100000200000000000,
|
|
100000100100100000100000100000100000000000100000,
|
|
000000100000200000100000000000100000200000000000,
|
|
100000100000200200200000100000100000200200200000,
|
|
100000100000200200200000100000100000200200200000,
|
|
100000200000100000000000100000200000100000000000,
|
|
100100200200200000000000100200000100200000100000,
|
|
100000000000100000000000700000000000000000000800,
|
|
000000000000300000000000300000000000300000000000,
|
|
300000300000000000000000400000000000000000000000,
|
|
100000100000000000400000000000400000000000000000,
|
|
|
|
#GOGOEND
|
|
200000200200200000100000100000000000200000000000,
|
|
100000100100100000100000000000100000200000000000,
|
|
200000200200200000100000100000000000200000000000,
|
|
100000100100100000100000000000100000200000000000,
|
|
400000100100100000000000100100100000000000100100,
|
|
100000000000100100100000000000100100100000000000,
|
|
100000100000100000100000200000200000200000200000,
|
|
100000100000200200200200200000000000200000000000,
|
|
300000000000000000000000000000000000000000000000,
|
|
|
|
|
|
#END
|
|
|
|
|
|
COURSE:Hard
|
|
LEVEL:4
|
|
BALLOON:10,7,5,5
|
|
SCOREINIT:340
|
|
SCOREDIFF:130
|
|
|
|
|
|
#START
|
|
|
|
|
|
100000000000000000100000000000000000100000000000,
|
|
000000100000000000000000200000000000200000000000,
|
|
700000000000000000000000000000000000000000000800,
|
|
000000000000100000000000100000100000000000000000,
|
|
100000100000100000000100100100000100000000000000,
|
|
100000000000100000100000000000000000200000000000,
|
|
100000000000100000000000100000100000000000100000,
|
|
000000000000200000000000200000000200000000200000,
|
|
100000100000000000100100100000100000000000100100,
|
|
100000100000000000100100100000100000000000000000,
|
|
100000000000100000000000100000100000000000100000,
|
|
000000000000200200000000200200000000200200000000,
|
|
100000100100100000000000100000100100100000000000,
|
|
100000100000100000000000100000100000100000000000,
|
|
100000200200200000000000100000200200200000000000,
|
|
100000200000200000000000100000200000200000000000,
|
|
100000100000200000000000100000100000200000000000,
|
|
100000100000000000100000000000000000100000000000,
|
|
700000000000000000000000000000000800000000000000,
|
|
100000000000100000300000000000000000000000000000,
|
|
#GOGOSTART
|
|
100000000000100000000000100000100000000000100000,
|
|
100000100000000000200000000000100000200000000000,
|
|
100000100000100000000000100000100000000000100000,
|
|
100000000000100000200000100100000200200000000000,
|
|
100000000000100000000000200000000000200000000000,
|
|
300000300000000000300000000000000000000000000000,
|
|
100000100000100000000000100000100000000000500000,
|
|
000000000000000000000800000000000000100000000000,
|
|
200000200000000000000000000000000000100000000000,
|
|
200000200000000000000000000000000000100000000000,
|
|
100000000000000000200000200000100000000000200000,
|
|
100000000000000000000000000000000000100000100000,
|
|
100000000000100000000000700000000000000000000800,
|
|
000000000000300000000000300000000000300000000000,
|
|
300000300000000000000000400000000000000000000000,
|
|
100000100000000000400000000000400000000000000000,
|
|
#GOGOEND
|
|
000000000000100000000000100000000000200000000000,
|
|
100100100000000000100000100000100000200000000000,
|
|
100000100000000000200000100000000000000000000000,
|
|
100100100000000000000000200000200000200000000000,
|
|
100000100000000000100000100000000000200000000000,
|
|
200000200000000000100000100000000000200000000000,
|
|
100000000000100000000000200000000000200000000000,
|
|
100000000100000000100000000000100000100000000000,
|
|
200000000000200000000000200000000200000000200000,
|
|
000000000000100000100000100000100000200000000000,
|
|
200000000000200000000000200200200000000000200000,
|
|
000000000000100000100000100000100000200000000000,
|
|
200000200000000000100000100000000000100000000000,
|
|
200000200000000000200000200000000000200000000000,
|
|
100000100000000000000000100000000000200000000000,
|
|
200000000000200000000000100000000000100000000000,
|
|
200000000000000000200000000000000000200000000000,
|
|
000000200000000000000000200000000000400000000000,
|
|
500000000000000000000000000000000800000000000000,
|
|
300000000000200000000000200000200000000000000000,
|
|
#GOGOSTART
|
|
100000000000100000000000100000100000000000100000,
|
|
100000100000000000200000000000100000200000000000,
|
|
100000100000100000000000100000100000000000100000,
|
|
100000000000100000200000100100000200200000000000,
|
|
100000000000100000000000200000000000200000000000,
|
|
300000300000000000300000000000000000000000000000,
|
|
100000100000100000000000100000100000000000500000,
|
|
000000000000000000000800000000000000100000000000,
|
|
100000100000200200200000100000100000200200200000,
|
|
100000100000200200200000100000100000200200200000,
|
|
100000000000100000200000200000100000000000200000,
|
|
100000000000000000000000000000000000100000100000,
|
|
100000000000100000000000700000000000000000000800,
|
|
000000000000300000000000300000000000300000000000,
|
|
300000300000000000000000400000000000000000000000,
|
|
100000100000000000400000000000400000000000000000,
|
|
#GOGOEND
|
|
200000200200200000100000100000000000200000000000,
|
|
100000100100100000200000000000100000200000000000,
|
|
200000200200200000100000100000000000200000000000,
|
|
100000100100100000200000000000100000100000000000,
|
|
200000100100100000000000100100100000000000100100,
|
|
100000000000100100100000000000100100100000000000,
|
|
100000100000100000100000200000200000200000200000,
|
|
100000100000200000200000200000000000200000000000,
|
|
300000000000000000000000000000000000000000000000,
|
|
|
|
|
|
#END
|
|
|
|
|
|
COURSE:Normal
|
|
LEVEL:5
|
|
BALLOON:12,4,4
|
|
SCOREINIT:400
|
|
SCOREDIFF:190
|
|
|
|
|
|
#START
|
|
|
|
|
|
100000000000000000100000000000000000100000000000,
|
|
000000100000000000000000100000000000100000000000,
|
|
700000000000000000000000000000000000000000000000,
|
|
000000000000000000000800000000000000000000000000,
|
|
100000000000100000000000100000100000000000000000,
|
|
100000000000100000100000000000000000000000000000,
|
|
100000000000100000000000100000100000000000100000,
|
|
000000000000000000000000000000000000000000000000,
|
|
100000000000000000100100100000000000000000000000,
|
|
100000000000000000100100100000000000000000000000,
|
|
100000000000100000000000100000100000000000100000,
|
|
000000000000000000000000000000000000000000000000,
|
|
100000000000200000000000100000000000200000000000,
|
|
100000100000000000200000000000000000000000000000,
|
|
100000000000200000000000100000100000000000000000,
|
|
200000000000000000000000000000000000000000000000,
|
|
100000100000100000000000100000100000100000000000,
|
|
100000000000000000100000000000000000100000000000,
|
|
500000000000000000000000000000000000000000000000,
|
|
000800000000000000000000000000000000000000000000,
|
|
#GOGOSTART
|
|
100000000000100000000000100000100000000000000000,
|
|
100000100000000000200000000000000000000000000000,
|
|
100000000000100000000000100000000000000000100000,
|
|
100000000000000000000000000000000000000000000000,
|
|
100000000000100000000000200000000000200000000000,
|
|
100000100000000000100000000000000000000000000000,
|
|
100000000000100000000000100000100000000000500000,
|
|
000000000000000000000800000000000000100000000000,
|
|
200000200000000000000000000000000000100000000000,
|
|
200000200000000000000000000000000000100000000000,
|
|
100000000000100000000000100000000000000000100000,
|
|
100000000000000000000000000000000000100000100000,
|
|
100000000000100000000000700000000000000000000800,
|
|
000000000000300000000000300000000000300000000000,
|
|
500000000000000000000000000000000000000000000000,
|
|
000000000000000000000800000000000000000000000000,
|
|
#GOGOEND
|
|
000000000000100000000000200000000000200000000000,
|
|
100000000000000000100000100000000000200000000000,
|
|
100000000000000000100000100000000000000000000000,
|
|
100100100000000000000000200000200000200000000000,
|
|
100000100000000000100000100000000000000000000000,
|
|
200000200000000000200000200000000000000000000000,
|
|
100000000000100000000000200000000000200000000000,
|
|
100000000100000000100000000000100000100000000000,
|
|
000000000000200000000000200000000000200000000000,
|
|
000000000000100000000000100000000000200000000000,
|
|
000000000000200000000000200000000000200000000000,
|
|
000000000000100000000000200000000000200000000000,
|
|
100000000000000000100000100000000000000000000000,
|
|
200000000000000000200000200000000000000000000000,
|
|
100000000000000000000000100000000000200000000000,
|
|
200000000000000000000000000000000000000000000000,
|
|
200000000000000000200000000000000000200000000000,
|
|
000000200000000000000000200000000000200000000000,
|
|
500000000000000000000000000000000000000000000000,
|
|
000800000000000000000000000000000000000000000000,
|
|
#GOGOSTART
|
|
100000000000100000000000100000100000000000000000,
|
|
100000100000000000200000000000000000000000000000,
|
|
100000000000100000000000100000000000000000100000,
|
|
100000000000000000000000000000000000000000000000,
|
|
100000000000100000000000200000000000200000000000,
|
|
100000100000000000100000000000000000000000000000,
|
|
100000000000100000000000100000100000000000500000,
|
|
000000000000000000000800000000000000100000000000,
|
|
200000200000000000000000000000000000100000000000,
|
|
200000200000000000000000000000000000100000000000,
|
|
100000000000100000000000100000000000000000100000,
|
|
100000000000000000000000000000000000100000100000,
|
|
100000000000100000000000700000000000000000000800,
|
|
000000000000300000000000300000000000300000000000,
|
|
500000000000000000000000000000000000000000000000,
|
|
000000000000000000000800000000000000000000000000,
|
|
#GOGOEND
|
|
100000000000000000100000100000000000000000000000,
|
|
100000000000000000100000000000100000100000000000,
|
|
200000000000000000200000200000000000200000000000,
|
|
100000000000000000200000000000200000200000000000,
|
|
000000100100100000000000100100100000000000100100,
|
|
100000000000100100100000000000100100100000000000,
|
|
100000000000100000000000200000000000200000000000,
|
|
100000000000200000200000200000000000100000000000,
|
|
300000000000000000000000000000000000000000000000,
|
|
|
|
|
|
#END
|
|
|
|
|
|
COURSE:Easy
|
|
LEVEL:4
|
|
SCOREINIT:380
|
|
SCOREDIFF:160
|
|
|
|
|
|
#START
|
|
|
|
|
|
000000000000000000000000000000000000000000000000,
|
|
000000000000000000000000000000000000000000000000,
|
|
000000000000000000000000000000000000000000000000,
|
|
000000000000000000000000000000000000000000000000,
|
|
100000000000000000000000100000000000000000000000,
|
|
100000000000000000000000000000000000000000000000,
|
|
100000000000100000000000100000000000000000000000,
|
|
100000000000000000000000000000000000000000000000,
|
|
100000000000000000000000100000000000000000000000,
|
|
100000000000000000000000100000000000000000000000,
|
|
100000000000100000000000100000000000000000000000,
|
|
100000000000000000000000000000000000000000000000,
|
|
100000000000000000000000200000000000000000000000,
|
|
100000000000000000000000200000000000000000000000,
|
|
100000000000200000000000100000000000000000000000,
|
|
100000000000000000000000000000000000000000000000,
|
|
100000000000100000000000100000000000000000000000,
|
|
100000000000000000100000000000000000100000000000,
|
|
500000000000000000000000000000000000000000000000,
|
|
000000000000000000800000000000000000000000000000,
|
|
#GOGOSTART
|
|
100000000000100000000000100000000000000000000000,
|
|
100000100000000000200000000000000000000000000000,
|
|
100000000000100000000000100000000000000000000000,
|
|
300000000000000000000000000000000000000000000000,
|
|
100000000000100000000000200000000000200000000000,
|
|
100000100000000000100000000000000000000000000000,
|
|
100000000000100000000000100000100000000000200000,
|
|
000000000000000000000000000000000000100000000000,
|
|
100000000000000000000000000000000000100000000000,
|
|
100000000000000000000000000000000000000000000000,
|
|
100000000000000000000000100000000000000000000000,
|
|
100000000000000000000000000000000000100000100000,
|
|
100000000000100000000000400000000000000000000000,
|
|
000000000000300000000000300000000000300000000000,
|
|
500000000000000000000000000000000000000000000000,
|
|
000000000000000000800000000000000000000000000000,
|
|
#GOGOEND
|
|
000000000000000000000000000000000000000000000000,
|
|
000000000000000000000000000000000000000000000000,
|
|
100000000000000000000000100000000000000000000000,
|
|
000000000000000000000000000000000000000000000000,
|
|
100000000000000000000000200000000000000000000000,
|
|
100000000000000000000000200000000000000000000000,
|
|
100000000000100000000000100000000000100000000000,
|
|
100000000000000000000000000000000000000000000000,
|
|
000000000000200000000000200000000000200000000000,
|
|
000000000000100000000000000000000000100000000000,
|
|
000000000000200000000000200000000000200000000000,
|
|
000000000000100000000000000000000000100000000000,
|
|
100000000000000000200000200000000000000000000000,
|
|
100000000000000000200000200000000000000000000000,
|
|
100000000000000000000000200000000000200000000000,
|
|
200000000000000000000000000000000000000000000000,
|
|
200000000000000000200000000000000000200000000000,
|
|
000000200000000000000000200000000000200000000000,
|
|
000000000000000000000000000000000000000000000000,
|
|
100000000000000000000000300000000000000000000000,
|
|
#GOGOSTART
|
|
100000000000100000000000100000000000000000000000,
|
|
100000100000000000200000000000000000000000000000,
|
|
100000000000100000000000100000000000000000000000,
|
|
300000000000000000000000000000000000000000000000,
|
|
100000000000100000000000200000000000200000000000,
|
|
100000100000000000100000000000000000000000000000,
|
|
100000000000100000000000100000100000000000200000,
|
|
000000000000000000000000000000000000100000000000,
|
|
100000000000000000000000000000000000100000000000,
|
|
100000000000000000000000000000000000100000000000,
|
|
100000000000000000000000100000000000000000100000,
|
|
100000000000000000000000000000000000100000100000,
|
|
100000000000100000000000400000000000000000000000,
|
|
000000000000300000000000300000000000300000000000,
|
|
500000000000000000000000000000000000000000000000,
|
|
000000800000000000000000000000000000000000000000,
|
|
#GOGOEND
|
|
100000000000000000100000100000000000000000000000,
|
|
200000000000000000200000000000000000200000000000,
|
|
100000000000000000100000100000000000000000000000,
|
|
200000000000000000200000000000000000200000000000,
|
|
000000100000100000000000100000100000000000100000,
|
|
100000000000100000100000000000100000100000000000,
|
|
100000000000100000000000100000000000100000000000,
|
|
100000000000100000000000100000000000000000000000,
|
|
300000000000000000000000000000000000000000000000,
|
|
|
|
|
|
#END
|
|
|