Files
ESE/09 Namco Original/Madou Gensoukyoku/Madou Gensoukyoku.tja
T
2023-06-15 19:00:23 -05:00

431 lines
16 KiB
Plaintext

//TJADB Project
TITLE:Madou Gensoukyoku
TITLEJA:魔導幻想曲
SUBTITLE:--Katsuro Tajima
BPM:150
WAVE:Madou Gensoukyoku.ogg
OFFSET:-1.665
DEMOSTART:6.465
COURSE:Oni
LEVEL:9
BALLOON:7,3,3,3,3,5,7,14,14
SCOREINIT:420
SCOREDIFF:98
#START
200000000000200000000000100200000200100100200200,
#GOGOSTART
100000000100000000100000200100200000200000100000,
#GOGOEND
000200100100200100200100100100200100100100200100,
100000200100200000100000000000100000200000200100,
100000000100200000100000100100000100200000000000,
100000200100200000100000000000100000200000200100,
100000000100200000100000100100200100200200100200,
100000100200200000100000000000100000200000200100,
100000100100200000100000100100000100200000200200,
100000100200200000100000000000100000200000200100,
100000100100200000100000100100200100200200100200,
100000100000200000100000200000100000200200100000,
100000100000200000100000200000100000200200100200,
200000100000200000100000200000100000200200100000,
200000100000200000100000200000100000100100200200,
100200200200202020100100100100700000000000000000,
800000000000000000000000000000000000200200100100,
100100200100200200100200100100200100200200100200,
700000800000700000800000700000800000700000800000,
100000200000200200100000000000100200000200101010,
100000100000200200100000100000100000200200100000,
100000100000200200100000100000100000200200100100,
200200200200100100100100200200200200100100100100,
100000100000200000100000100000100000200200100000,
100200200100100200200200101010700000000000800000,
100000100000200000100000100000100000200200101010,
100000202020200000100000100200200200101010100100,
100000200100200000100200100100200100200000100100,
100000200100200000200100200200100200100000100100,
100000200100200000100200100200200100200000100100,
100000100000202020100100700000000000000000800000,
000000000000200000000000000000000000200000000000,
000000000000200000000000000000000000200200200200,
200000000000200000000000000000000000200000000000,
000000000000200000000000000000000000200200200200,
100000000200200000000000200000000000202020200000,
100000000200200000000000200000000000200200200200,
100000000200200000000000200000000000100200100100,
200100100200100100200100100200100100200100100200,
#GOGOSTART
100000000100100000200200100100000100100000200200,
100000000100100000200200100100000100200000200100,
100000000100100000200200100100000100100000200200,
100000000100100000200200100100000100100200200100,
100000000100200000200200100100000100100000200200,
100000000100200000200200100100000100200000200100,
100000100100200200100100000100200200100200200100,
200200100100200200100100200200200200100100100100,
100000200100100000200200100100000100100000200200,
100000200100100000200200100100000100100200200100,
100000200100100000200200100100000100100200200200,
100000200100100000200200100100000100100200200100,
100000200100200000200200100100000100100000200200,
100000200100200000200200100100000100100200200100,
100000200100200000200200100100000100100200200200,
101010101010100200000300000000000000000000000000,
#GOGOEND
000000000000000000400000000000000000000000000000,
100100000100000000100000100000100000100200200100,
000000000000000000300000000000000000000000000000,
000100100200100100200100100200100100200100100200,
100000100200000200100000200100200000200000100000,
000000100000000200100000202020200200101010100000,
200000200200000200100000200100200000200200100000,
100000200200200100100100200200100100200200100100,
100000100000200000000000200200000200200000101010,
100000200100100000200000100000000000200000000000,
100000100000200000000000200200000200200000101010,
100000200100100000200000100000000000200000000000,
100200200000200000100200200000200000100200200000,
700000000000000000000000000000000000800000000000,
200100100000100000200100100000100000200100100000,
700000000000000000000000000000000000800000000000,
#GOGOSTART
#MEASURE 3/4
100000100100100000200200100100100000,
100000100100100000200200100200200000,
100000200200100000100100202020200000,
100000200100200000100100202020200000,
100000100100100000100100101010101010,
100000100100100000200200202020202020,
200200200200100000200100100100200000,
100200100200100000200200101010101010,
#GOGOEND
#MEASURE 4/4
100000200000200000200000200200100200100000000000,
#END
COURSE:Hard
LEVEL:7
BALLOON:12,2,2,2,2,10,10
SCOREINIT:550
SCOREDIFF:138
#START
#barlineoff
000000000000000000000000000000000000000000000000,
#barlineon
#GOGOSTART
900000000000000000000000000000000000000000000000,
#GOGOEND
800000000000000000000000000000000000000000000000,
100000000000200000100000000000100000200000000000,
100000000000200000000000100000100000200000000000,
100000000000200000100000000000100000200000000000,
100000000000200000200000100000000000200000000000,
200000000000100000200000000000200000100000000000,
200000200000000000200000100000000000100000000000,
200000200000100000200000000000200000100000000000,
200000200000100000100000200000200000100100100000,
100000100000000000100000000000100000200200200000,
100000100000000000100000000000100000200200200200,
200000100000000000100000000000100000200200200000,
200000100000000000100000000000100000200200200000,
500000000000000000000000000000000000000000000800,
000000000000000000000000000000000000000000000000,
100000100000200000100000100000100000200000100000,
700008000000700008000000700008000000700008000000,
100000200000200000100000000000100000000000100000,
100000100000200200200000100000100000200200200000,
100000100000200200200000100000100000200200200000,
100100100100100000000000000000000000100000000000,
100000100000200000100000100000100000200200200000,
300000400000400000300000400000400000300000000000,
100000100000200000100000100000100000100100100000,
300000400000400000300000000000000000300000000000,
100000100000200200200000100000100000200200200000,
100000100000200200200000100000100000200200200000,
100000100100100000100100100000100000100000000000,
200000200000200200200000400000400000000000000000,
000000000000200000000000000000000000200000000000,
000000000000200000000000000000000000200200200200,
200000000000200000000000000000000000200000000000,
000000000000200000000000000000000000100100100100,
100000000200200000000000000000000000200000000000,
100000000200200000000000000000000000100100100100,
100000000200200000000000000000000000200000000000,
500000000000000000000000000000000800000000000000,
#GOGOSTART
100000000100100000000000100000000100100000000000,
100000000100100000000000200000000000200000000000,
100000000100100000000000100000000100100000000000,
100000000100100000000000100000000000200200200000,
100000000100100000000000100000000100100000000000,
100000000100100000000000200000000000200000000000,
100000100000200000000000100000100000200000000000,
100100100000200000200000100100100000200000200000,
100000000100100000000000100000000100100000000000,
100000000100100000000000100000000000200200200000,
100000000100100000000000100000000100100000000000,
100000000100100000000000100000000000200200200000,
200000000200200000000000200000000200200000000000,
200000000200200000000000200000000000200200200000,
200000000200200000000000200000000200200000000000,
100000000100100000000300000000000000000000000000,
#GOGOEND
000000000000000000400000000000000000000000000000,
100100000100000000100000100000100000100000000000,
000000000000000000300000000000000000000000000000,
100100100000100100100000100100100000100100100000,
200000000200000000200000200000200000200000100000,
000000100000000000100000000000100000100100100000,
200000000200000000200000200000200000200000100100,
100000100100100000100100100000100000000000100000,
100000100000000000000000200000200000000000000000,
000000100000100000100000100000000000200000000000,
100000100000000000000000200000200000000000000000,
000000100000100000100000100000000000200000000000,
100000200000200000100000200000200000100100100000,
700000000000000000000000000000000800000000000000,
200000100000100000200000100000100000200200200000,
700000000000000000000000000000000800000000000000,
#GOGOSTART
#MEASURE 3/4
100000100100100000100000000000000000,
100000100100100000100000000000000000,
300000400000400000300000000000000000,
300000400000400000300000000000000000,
100000200200200000100000000000000000,
100000200200200000100000000000000000,
300000400000400000300000400000400000,
300000400000400000100100100100100100,
#GOGOEND
100000000000000000000000000000000000,
#END
COURSE:Normal
LEVEL:5
BALLOON:10,2,2,2,2,7,7
SCOREINIT:690
SCOREDIFF:188
#START
#barlineoff
000000000000000000000000000000000000000000000000,
#barlineon
#GOGOSTART
900000000000000000000000000000000000000000000000,
#GOGOEND
800000000000000000000000000000000000000000000000,
100000000000200000000000100000000000200000000000,
100000000000100000000000100000000000000000000000,
100000000000200000000000100000000000200000000000,
100000000000100000100000100000000000000000000000,
200000000000100000000000200000000000100000000000,
200000000000200000000000200000000000000000000000,
200000000000100000000000200000000000100000000000,
200000000000200000200000200000000000000000000000,
100000100000000000100000000000100000000000100000,
100000100000000000100000000000100000000000200000,
200000200000000000200000000000200000000000200000,
200000200000000000200000000000200000000000200000,
500000000000000000000000000000000000000000000080,
000000000000000000000000000000000000000000000000,
100000100000100000000000100000100000100000000000,
700080000000700080000000700080000000700080000000,
000000000000000000000000000000000000000000000000,
100000000000200000000000100000000000200000000000,
100000000000200000000000100000000000200000000000,
300000000000300000000000000000000000000000000000,
100000100000100000000000100000100000100000000000,
300000000000000000300000000000000000300000000000,
100000100000100000000000100000100000100000000000,
300000000000000000300000000000000000300000000000,
100000000000200000000000100000000000200000000000,
100000000000200000000000100000000000200000000000,
100000100000100000000000100000100000100000000000,
200000200000200000000000400000400000000000000000,
000000000000200000000000000000000000200000000000,
000000000000200000000000000000000000200000000000,
000000000000200000000000000000000000200000000000,
000000000000200000000000000000000000200000000000,
100000000000200000000000000000000000200000000000,
100000000000200000000000000000000000200000000000,
100000000000200000000000000000000000200000000000,
500000000000000000000000000000000080000000000000,
#GOGOSTART
100000000000100000000000100000000000100000100000,
100000000000100000000000200000000000200000000000,
100000000000100000000000100000000000100000100000,
100000000000000000000000100000000000100000100000,
100000000000100000000000100000000000100000100000,
100000000000100000000000200000000000200000000000,
500000000080000000000000500000000080000000000000,
600000000080000000000000600000000080000000000000,
100000000000100000000000100000000000000000000000,
100000000000100000000000100000000000200000200000,
100000000000100000000000100000000000000000000000,
100000000000100000000000100000000000200000200000,
100000000000100000000000100000000000000000000000,
100000000000100000000000100000000000200000200000,
100000000000100000000000100000000000000000000000,
300000000000000000000300000000000000000000000000,
#GOGOEND
000000000000000000400000000000000000000000000000,
500000000000000000000000000000000000000080000000,
000000000000000000300000000000000000000000000000,
100000000000100000000000100000000000100000000000,
500000000000000000000000000000000000000080000000,
000000000000000000000000000000000000000000000000,
600000000000000000000000000000000000000080000000,
000000000000000000000000000000000000000000000000,
100000100000000000000000200000200000000000000000,
000000100000100000100000100000000000000000000000,
100000100000000000000000200000200000000000000000,
000000100000100000100000100000000000000000000000,
100000000000100000100000000000100000100000000000,
700000000000000000000000000000000080000000000000,
200000000000200000200000000000200000200000000000,
700000000000000000000000000000000080000000000000,
#MEASURE 3/4
#GOGOSTART
100000000000100000100000000000100000,
100000000000100000100000000000000000,
300000000000300000300000000000300000,
300000000000300000300000000000000000,
100000000000200000100000000000200000,
100000000000200000100000000000000000,
300000000000400000300000000000400000,
300000000000400000300000000000000000,
#GOGOEND
#MEASURE 4/4
400000000000000000000000000000000000000000000000,
#END
COURSE:Easy
LEVEL:3
BALLOON:8,2,2,2,2,6,6
SCOREINIT:570
SCOREDIFF:163
#START
#barlineoff
000000000000000000000000000000000000000000000000,
#barlineon
#GOGOSTART
900000000000000000000000000000000000000000000000,
#GOGOEND
800000000000000000000000000000000000000000000000,
100000000000000000000000100000000000000000000000,
100000000000100000000000100000000000000000000000,
100000000000000000000000100000000000000000000000,
100000000000100000000000100000000000000000000000,
200000000000000000000000200000000000000000000000,
200000000000200000000000200000000000000000000000,
200000000000000000000000200000000000000000000000,
200000000000200000000000200000000000000000000000,
100000000000000000000000000000000000100000000000,
100000000000000000000000000000000000100000000000,
200000000000000000000000000000000000200000000000,
200000000000000000000000000000000000200000000000,
500000000000000000000000000000000000000000000080,
000000000000000000000000000000000000000000000000,
100000000000100000000000100000000000100000000000,
700080000000700080000000700080000000700080000000,
000000000000000000000000000000000000000000000000,
100000000000200000000000100000000000000000000000,
100000000000200000000000100000000000000000000000,
300000000000300000000000000000000000000000000000,
100000000000100000000000100000000000100000000000,
300000000000000000300000000000000000300000000000,
100000000000100000000000100000000000100000000000,
300000000000000000300000000000000000300000000000,
100000000000000000000000100000000000000000000000,
100000000000100000000000100000000000000000000000,
100000000000100000000000100000000000100000000000,
200000000000200000000000400000000000000000000000,
000000000000200000000000000000000000200000000000,
000000000000200000000000000000000000200000000000,
000000000000200000000000000000000000200000000000,
000000000000200000000000000000000000200000000000,
100000000000200000000000000000000000200000000000,
100000000000200000000000000000000000200000000000,
100000000000200000000000000000000000200000000000,
500000000000000000000000000080000000000000000000,
#GOGOSTART
100000000000100000000000100000000000000000000000,
100000000000000000000000100000000000100000000000,
100000000000100000000000100000000000000000000000,
100000000000000000000000100000000000000000000000,
100000000000100000000000100000000000000000000000,
100000000000000000000000100000000000100000000000,
500000000080000000000000500000000080000000000000,
600000000080000000000000600000000080000000000000,
100000000000100000000000100000000000000000000000,
100000000000000000000000100000000000200000000000,
100000000000100000000000100000000000000000000000,
100000000000000000000000100000000000200000000000,
100000000000100000000000100000000000000000000000,
100000000000000000000000100000000000200000000000,
100000000000100000000000100000000000000000000000,
300000000000000000000300000000000000000000000000,
#GOGOEND
000000000000000000400000000000000000000000000000,
500000000000000000000000000000000000000080000000,
000000000000000000300000000000000000000000000000,
100000000000100000000000100000000000100000000000,
500000000000000000000000000000000000000080000000,
000000000000000000000000000000000000000000000000,
600000000000000000000000000000000000000080000000,
000000000000000000000000000000000000000000000000,
100000000000000000000000200000000000000000000000,
100000000000100000000000200000000000000000000000,
100000000000000000000000200000000000000000000000,
100000000000100000000000200000000000000000000000,
200000000000000000200000000000000000200000000000,
700000000000000000000000000000000080000000000000,
200000000000000000200000000000000000200000000000,
700000000000000000000000000000000080000000000000,
#MEASURE 3/4
#GOGOSTART
100000000000000000100000000000000000,
100000000000000000100000000000000000,
300000000000000000300000000000000000,
300000000000000000300000000000000000,
100000000000000000100000000000000000,
100000000000000000100000000000000000,
300000000000000000300000000000000000,
300000000000000000300000000000000000,
#GOGOEND
#MEASURE 4/4
400000000000000000000000000000000000000000000000,
#END