Files
ESE/09 Namco Original/Tongachin/Tongachin.tja
T
2023-03-24 23:02:25 -04:00

379 lines
5.4 KiB
Plaintext

//TJADB Project
TITLE:Tongachin
TITLEJA:トンガチン
SUBTITLE:--Kimitaka Matsumae
SUBTITLEJA:Kimitaka Matsumae
BPM:160
WAVE:Tongachin.ogg
OFFSET:-1.625
DEMOSTART:6.872
COURSE:Oni
LEVEL:9
BALLOON:10
SCOREINIT:660
SCOREDIFF:188
NOTESDESIGNER3:Kawagen Collagen
#START
,
0000300000300400,
0000003000003004,
00001001,
0100000020100000,
1001002002001002,
0010012000000010,
0000100100200200,
#GOGOSTART
1000201021202020,
0010200010212020,
2202120220122100,
2202201202201221,
0222022212000010,
2122220202100022,
1021022220201202,
0012212000000012,
2222122122202222,
500008000000200000100200100000100000200000100000,
0010200210102012,
0102010011212201,
2221211221100100,
#GOGOEND
0001001220020021,
0000210010200002,
2102002100120000,
0021002201001002,
0000210020010012,
#GOGOSTART
2220112012201211,
0011222011201121,
2210112220112011,
2122101111222100,
3002001002001020,
2001001001250000,
000000000000000008000200000000200000000200200200,
100200000000000500000000000000000000000000008000,
000000000000000000200200200000500000000000008000,
0010200200002000,
#GOGOEND
1002221001000002,
1010022210020010,
0100000222200210,
0002000002221001,
0020010002001000,
7008,
0100000001000100,
1011101000001111,
0010101001000001,
1111000000010011,
1100100100001000,
0010100100001010,
2000012002000000,
0021011021021111,
1011201010200200,
0001002010002102,
0010000020010020,
0200010010200000,
2002010010102010,
0020121010010020,
0000211210101011,
#GOGOSTART
1222022121000000,
2022120212000011,
2021022120102102,
0012111000000011,
1222121011201122,
000100200000100200200000000500008000000200000000,
1101020101201122,
0012012200112220,
1201212012060000,
000008000000400000000000000000000000000000000000,
#END
COURSE:Hard
LEVEL:7
BALLOON:4,4,4,10,4,10,4
SCOREINIT:1190
SCOREDIFF:380
#START
,
0000300000300400,
0000003000003004,
00001001,
0200000000100000,
1002000000001000,
0010020000000010,
0000100200000000,
#GOGOSTART
1000001002000000,
0010000010020000,
0000100000100200,
0000001000001002,
0111070000008000,
100000500000008000000100000100000000000000200200,
200000200200000500000008000000200000200200000200,
07000805,
000000000000000008000000200200200000700000000000,
80201120,
01201120,
0102010011102207,
0000000000080100,
#GOGOEND
0001002000000001,
0000010020000000,
0100000100200000,
0001000001002000,
0000010000010020,
#GOGOSTART
10201120,
0010200010102002,
0102010201020105,
000000000000008000000500000000000000008000000000,
3002001002001020,
2001001005000000,
000000000000008000000200000000100000000700000000,
800000000000000500000000000000000000000000008000,
000000000000000000200200200000500000000000000008,
0010100200002000,
#GOGOEND
1000001002000000,
0010000010020000,
0000100000100200,
0000001000002001,
0020010002001000,
9,
,
8,
,
,
,
,
1000001002000000,
0010000010020000,
0000100000100200,
0000001000001002,
0000000010000010,
0200000000100000,
1002000000001000,
0010020000000010,
0000100200000000,
#GOGOSTART
0111070000000080,
100000500000008000000100000100000000000000200200,
200000200200000500000008000000200000200200000200,
07000085,
000000000000000008000000100100100000500000008000,
0110111003000200,
0101020001101110,
000000200200000200200200000000500000000008000000,
2201102022060000,
008000000000400000000000000000000000000000000000,
#END
COURSE:Normal
LEVEL:6
BALLOON:5,7,3
SCOREINIT:1080
SCOREDIFF:428
#START
,
0000300000400400,
0000003000004004,
0000000010000020,
0200000000100000,
2002000000001000,
0020020000000010,
0000200200000000,
#GOGOSTART
1000002002000000,
0010000020020000,
0000100000200200,
0000001000002002,
0000000010000020,
0200000000100000,
2002000000001000,
0020020000000010,
0000200200000000,
30201110,
0000200010000001,
00201110,
0002000100000100,
#GOGOEND
0002002000000001,
0000020020000000,
0100000200200000,
0001000002002000,
0000010000020020,
#GOGOSTART
00201110,
00201110,
0002000200020007,
0008,
1000002000001001,
01001002,
0000100100100000,
1000002000001001,
01001002,
0000100100100000,
#GOGOEND
1000002002000000,
0010000020020000,
0000100000200200,
0000001000002002,
0000000003000000,
9,
,
8,
,
,
,
,
1000002002000000,
0010000020020000,
0000100000200200,
0000001000002002,
0000000010000020,
0200000000100000,
2002000000001000,
0020020000000010,
0000200200000000,
#GOGOSTART
00001002,
0200000000100000,
2002000000001000,
0020020000000010,
0000200200000000,
0700008030002000,
0101010002002000,
0020020000000030,
0300003003060000,
008000000000300000000000000000000000000000000000,
#END
COURSE:Easy
LEVEL:4
BALLOON:4,4,6
SCOREINIT:1020
SCOREDIFF:643
#START
,
0000300000000400,
0000003000000004,
01,
0200000000100000,
0002000000001000,
0000020000000010,
0000000200000000,
#GOGOSTART
1000000002000000,
0010000000020000,
0000100000000200,
0000001000000002,
01,
0200000000100000,
0002000000001000,
0000020000000010,
0000000200000000,
500000000000000000000008000000000000000000000000,
1,
0100000000200007,
0000000080000100,
#GOGOEND
0000002000000001,
02,
0100000000200000,
0001000000002000,
0000010000000020,
#GOGOSTART
0101,
0101,
0002000000020007,
0008,
10010010,
01001001,
00100100,
10010010,
01001001,
00100100,
#GOGOEND
1000000002000000,
0010000000020000,
0000100000000200,
0000001000000002,
0000000003000000,
9,
,
8,
,
,
,
,
1000000002000000,
0010000000020000,
0000100000000200,
0000001000000002,
01,
0200000000100000,
0002000000001000,
0000020000000010,
0000000200000000,
#GOGOSTART
01,
0200000000100000,
0002000000001000,
0000020000000010,
0000000200000000,
0000000006000000,
0800000001000000,
01000003,
0000003000060000,
000000008000000000000000000000000000000000000000,
#END