Files
ESE/01 Pop/Lady Marmalade/Lady Marmalade.tja
T
2023-09-16 17:39:30 -05:00

534 lines
11 KiB
Plaintext

//TJADB Project
TITLE:Lady Marmalade
TITLEJA:Lady Marmalade
SUBTITLE:--Labelle
BPM:109.9
WAVE:Lady Marmalade.ogg
OFFSET:-2.202
DEMOSTART:54.339
COURSE:Oni
LEVEL:4
#START
000000000000
#BPMCHANGE 109.6
200000000000000000000000
#BPMCHANGE 109.4
200000000000,
100000000000
#BPMCHANGE 112.2
200000100000100000000000
#BPMCHANGE 107.2
200000100000,
100000000000
#BPMCHANGE 109.7
200000100000100000000000
#BPMCHANGE 111.6
200000100100,
#BPMCHANGE 109.9
100000100000200100100000000000100000200100100000,
100000000000200100100000100000200000000000100100,
100000100000200000100000000000100000100000100000,
200000000000200000000000200000100000000000000000,
100000100000200000100000000000100000100000100000,
200000000000200000000000200000100000000000100100,
100000000000200000100000100000000000200000000000,
100000000000200000100000100000000000100100100100,
100000100000200100100000100000100000000000100000,
000000000000200000000000200000100000000000100100,
100000100000200100100000100000100000000000100000,
000000000000200000000000200000100000000000100100,
100000100000200100100000100000100000000000100000,
000000000000200000000000200000100000000000000000,
100000100000200000100000100100200200100000100000,
000000000000000000100000100000000000000000100000,
100000000000000000100000100000000000300000000000,
100000200000100000100100200000100000200100100000,
000000000000100000100000000000100000000000000000,
100000200000100000100100200000100000200100100000,
000000000000000000000000000000100000100100100000,
100100100000200000100100100000100000200100100000,
100100100000200000100100100000100000200100100000,
100100100000200000100100100000100000200100100000,
100100100000200000100100100000100000200100100000,
100000000000000000000000000000000000000000000000,
100000000000000000100000100000000000200200100100,
100000100000200100100000100000100000000000100000,
000000000000200000000000200000100000000000100100,
100000100000200100100000100000100000000000100000,
000000000000200000000000200000100000000000100100,
100000100000200100100000100000100000000000100000,
000000000000200000000000200000100000000000100100,
100000000000000000000000000000000000000000300000,
000000000000000000300000300000000000000000300000,
300000000000000000300000300000000000400000000000,
#END
COURSE:Hard
LEVEL:2
STYLE:Double
SCOREINIT:980
SCOREDIFF:270
#START P1
0202,
10211021,
,
11210121,
1000201010200011,
1000200011102000,
1110,
11210111,
2000200020100011,
10211020,
,
11211101,
0000200020100011,
10201120,
1110,
11211101,
0000200020100011,
1010201011202010,
00011001,
1000001010004011,
1020101120102010,
00110100,
11201020,
02222000,
11210121,
1000211010002110,
1000211010002110,
11200100,
1,
0000001010001111,
11211101,
0000200020100011,
1000200011102000,
1110,
11211101,
00202100,
30000005,
,
000000000000000000000008000000000000300000000000,
#END
#START P2
0202,
,
1000201010002011,
1000211010002110,
1000211010002110,
11210111,
20202100,
1000200011102000,
1110,
,
1000201010001111,
10201120,
1110,
11211101,
0000200020100011,
10201120,
1110,
30000005,
,
000008000000000000100000100000000000400000000000,
11201020,
2000200020002011,
1020101120101120,
2000000000101110,
1000211010002110,
11200100,
11210121,
1000211010002110,
,
1,
1000200011102000,
1110,
11211101,
0000200020100011,
1000200011102000,
1000100010000011,
1010201011202010,
00011001,
10011030,
#END
STYLE:Single
SCOREINIT:820
SCOREDIFF:420
#START
000000000000200000000000000000000000200000000000,
100000000000200000100000100000000000200000100000,
100000000000200000100000100000000000200000100100,
100000100000200000100000000000100000200000100000,
100000000000200000100000100000200000000000100100,
100000100000200000100000000000100000100000100000,
200000000000200000000000200000100000000000000000,
100000100000200000100000000000100000100000100000,
200000000000200000000000200000100000000000100100,
100000000000200000100000100000000000200000000000,
100000000000200000100000100000000000100100100100,
100000100000200000100000100000100000000000100000,
000000000000200000000000200000100000000000100100,
100000100000200000100000100000100000000000100000,
000000000000200000000000200000100000000000100100,
100000100000200000100000100000100000000000100000,
000000000000200000000000200000100000000000000000,
100000100000200000100000100100200000200000100000,
000000000000000000100000100000000000000000100000,
100000000000000000100000100000000000300000000000,
100000200000100000100100200000100000200000100000,
000000000000100000100000000000100000000000000000,
100000200000100000100100200000100000100100200000,
000000000000000000000000000000100000100100100000,
100000100000200000100000000000100000200000100000,
100000000000200100100000100000000000200100100000,
100000100000200000100000000000100000200000100000,
100000000000200100100000100000000000200100100000,
100000000000000000000000000000000000000000000000,
100000000000000000100000100000000000100100100100,
100000100000200000100000100000100000000000100000,
000000000000200000000000200000100000000000100100,
100000100000200000100000100000100000000000100000,
000000000000200000000000200000100000000000100100,
100000100000200000100000100000100000000000100000,
000000000000200000000000200000100000000000100100,
100000000000000000000000000000000000000000300000,
000000000000000000300000300000000000000000300000,
300000000000000000300000300000000000300000000000,
#END
COURSE:Normal
LEVEL:2
STYLE:Double
SCOREINIT:1370
SCOREDIFF:480
#START P1
0202,
1202,
00110000,
11110110,
2220,
0202,
10110100,
11110110,
2220,
0202,
10011000,
11110110,
2220,
00200120,
00001100,
11110110,
2220,
30110005,
,
000000000000000000000008000000000000300000000000,
11110000,
00110100,
00001111,
,
11110110,
2220,
0202,
10110100,
10011000,
0202
00200120,
00001100,
11110110,
2220,
00200120,
00001100,
30003011,
00033003,
30033030,
#END
#START P2
,
00110011,
1202,
0202,
10110100,
11110110,
2220,
0202,
10110100,
10011000,
0202,
00200120,
00001100,
11110110,
2220,
00200120,
00001100,
30003011,
00033003,
30033030,
00001111,
00110100,
11110000,
,
0202,
10110100,
11110110,
2220,
0202,
1001100,
11110110,
2220,
00200120,
00001100,
11110110,
2220,
30110005,
,
000000000000000000000008000000000000300000000000,
#END
STYLE:Single
SCOREINIT:1060
SCOREDIFF:320
#START
000000000000200000000000000000000000200000000000,
100000000000200000000000000000000000200000000000,
100000000000200000000000000000000000200000000000,
100000100000100000100000000000100000100000000000,
200000000000200000000000100000100000000000000000,
100000100000100000100000000000100000100000000000,
200000000000200000000000200000000000000000000000,
100000100000100000100000000000100000100000000000,
200000000000200000000000200000000000000000000000,
100000000000000000100000100000000000000000000000,
100000000000000000100000100000000000000000000000,
100000100000100000100000000000100000100000000000,
200000000000200000000000200000000000000000000000,
100000100000100000100000000000100000100000000000,
200000000000200000000000200000000000000000000000,
100000100000100000100000000000100000100000000000,
200000000000200000000000200000000000000000000000,
100000100000100000100000000000000000000000500000,
000000000000000000000000000000000800000000000000,
100000000000000000100000100000000000300000000000,
100000100000100000100000100000000000100000100000,
000000000000100000100000000000100000000000000000,
100000100000100000100000100000000000100000100000,
000000000000000000000000000000000000000000100000,
100000100000100000100000000000100000100000000000,
200000000000200000000000200000100000000000000000,
100000100000100000100000000000100000100000000000,
200000000000200000000000200000100000000000000000,
100000000000000000100000100000000000200000000000,
100000000000000000100000100000000000000000100100,
100000100000100000100000000000100000100000000000,
200000000000200000000000200000100000000000000000,
100000100000100000100000000000100000100000000000,
200000000000200000000000200000100000000000000000,
100000100000100000100000000000100000100000000000,
200000000000200000000000200000100000000000000000,
300000000000100000100000100000000000100000500000,
000000000000000000000000000000000000000000000000,
000000000000000000000800000000000000300000000000,
#END
COURSE:Easy
LEVEL:2
STYLE:Double
SCOREINIT:1600
SCOREDIFF:840
#START P1
,
00110000,
0202,
00110000,
2200,
11000000,
2200,
00110000,
00001100,
1,
10011000,
11000000,
2200,
00110000,
00001100,
11000000,
2200,
000010110,
00033003,
3003,
11110000,
00110000,
00000111,
,
11000000,
2200,
00110000,
00001100,
10011000,
1200,
11110000,
2220,
00001100,
00001100,
11110000,
2220,
10110005,
,
000000000008000000000000000000000000300000000000,
#END
#START P2
,
0202,
00110000,
11000000,
00001100,
00110000,
00001100,
11000000,
2200,
10011000,
1,
00110000,
00001100,
11000000,
2200,
00110000,
00001100,
10110005,
,
000000000008000000000000000000000000300000000000,
00000111,
,
11110000,
,
00110000,
00001100,
11000000,
2200,
1200,
10011000,
00000110,
00001100,
11110000,
2220,
00000110,
00001100,
000010110,
00033003,
3003,
#END
STYLE:Single
SCOREINIT:1400
SCOREDIFF:620
#START
000000000000000000000000000000000000000000000000,
000000000000100000100000000000000000000000000000,
000000000000100000100000000000000000000000000000,
300000000000000000000000000000000000000000000000,
200000000000200000000000200000000000000000000000,
100000100000000000000000000000000000000000000000,
200000000000200000000000200000000000000000000000,
100000100000000000000000000000000000000000000000,
200000000000200000000000200000000000000000000000,
100000000000000000100000100000000000000000000000,
100000000000000000000000000000000000000000000000,
100000100000100000100000000000000000000000000000,
200000000000200000000000200000000000000000000000,
100000100000100000100000000000000000000000000000,
200000000000200000000000200000000000000000000000,
100000100000100000100000000000000000000000000000,
200000000000200000000000200000000000000000000000,
100000000000100000100000000000000000000000500000,
000000000000000000000000000000000800000000000000,
000000000000000000000000000000000000000000000000,
100000100000000000000000100000000000000000100000,
000000000000100000100000000000000000000000000000,
100000100000000000000000100000000000000000000000,
000000000000000000000000000000000000000000000000,
100000100000000000000000000000000000000000000000,
200000000000200000000000200000000000000000000000,
100000100000000000000000000000000000000000000000,
200000000000200000000000200000000000000000000000,
100000000000000000100000100000000000000000000000,
100000000000000000100000100000000000000000000000,
100000100000100000100000000000000000000000000000,
200000000000200000000000200000000000000000000000,
100000100000100000100000000000000000000000000000,
200000000000200000000000200000000000000000000000,
100000100000100000100000000000000000000000000000,
200000000000200000000000200000000000000000000000,
100000000000100000100000000000000000000000500000,
000000000000000000000000000000000000000000000000,
000000000800000000000000000000000000300000000000,
#END