Files
ESE/01 Pop/Wu Niang/Wu Niang.tja
T
2023-09-16 17:39:30 -05:00

512 lines
13 KiB
Plaintext

//TJADB Project
TITLE:Wu Niang
TITLEJA:舞孃
SUBTITLE:--Jolin Tsai
SUBTITLEJA:蔡依林
BPM:124
WAVE:Wu Niang.ogg
OFFSET:-2.141
DEMOSTART:40.759
COURSE:Oni
LEVEL:8
SCOREINIT:500
SCOREDIFF:120
#START
100000200000100000200000100000200100200000200000,
100000002000000000100100200000100200100000100000,
100000200000100000200000100000200100200000200000,
100000100200000200000000200200200000200200100000,
100000000100200000100000200100100000200000100000,
100000000100200000100000200100100000200100100000,
100000000100200000100000200100100000200000000000,
100000100200000100000000200200200000200200100000,
100000000100200000100000200100100000200000100000,
100000000100200000100000200100100000200100100000,
200000200000100000100000100000200000200000000000,
100000100200000100000000200200200000200200100000,
100000000100200000100000100100000000200000100000,
100000000100200000100100200000100200200000100000,
100000000100200000100000100100000000200000100100,
100000000100200000100100200000100200200000100000,
100000000100200000100000100100000000200000100000,
100000000100200000100100200000100200200000100000,
000000000000200000000000000000000000200000000000,
200000000000000000000000200000000000200000000000,
#GOGOSTART
100000000100200000100000200200100100200000100000,
100100000100200000100000100100000100200000000000,
100000000100200000100000200200100000200200100000,
100100100000200200200000100100100000200200200000,
100000000100200000100000200200100100200000100000,
100100000100200000100000100100000100200000100000,
100000000100200000100000200200100000200200100000,
100100100000200200200000100100100000200200200000,
#GOGOEND
100000000200000000100000200000200100200000200000,
100000000200000000100100200000200100200000100000,
100000000200000000100000200000200100200000200000,
100000100200000200000000200200200000200200100000,
100000000100200000100000200100100000200000100000,
100000000100200000100000200100100000200100100000,
100000000100200000100000200100100000200000000000,
100000100200000100000000200200200000200200100000,
100000000100200000100000200100100000200000100000,
100000000100200000100000200100100000200100100000,
200000200000100000100000100000200000200000000000,
100000100200000100000000200200200000200200100000,
100000000100200000100000100100000000200000100000,
100000000100200000100100200000100200200000100000,
100000000100200000100000100100000000200000100100,
100000000100200000100100200000100200200000100000,
100000000100200000100000100100000000200000100000,
100000000100200000100100200000100200200000100000,
000000000000200000000000000000000000200000000000,
200000000000000000000000200000000000200000000000,
#GOGOSTART
100000000100200000100000200200100100200000100000,
100100000100200000100000100100000100200000000000,
100000000100200000100000200200100000200200100000,
100100100000200200200000100100100000200200200000,
100000000100200000100000200200100100200000100000,
100100000100200000100000100100000100200000100000,
100000000100200000100000200200100000200200100000,
100100200000200200100000100100200000200200100000,
100000000100200200100000200200100100200200100000,
100100000100200200100000100100000100200200100000,
100000000100200000100000200200100100200200100000,
100100100100200200200200100100100100200200200200,
100000000100200200100000200200100100200000100000,
100100000100200200100000100100000100200200100000,
100000000100200000100000200200100100200200100000,
100200200200100200200200100200200200100200200200,
#GOGOEND
100000000000000000000000000000000000000000000000,
#END
COURSE:Hard
LEVEL:6
SCOREINIT:570
SCOREDIFF:140
#START
12121212,
1,
12121212,
1000200022202000,
#SECTION
#BRANCHSTART p,75,90
#N
10111010,
1110,
10111010,
10202220,
10111010,
1110,
22201110,
10202220,
10222020,
10112020,
10222020,
10112020,
10222020,
10112020,
0202,
2022,
#E
10111010,
10111020,
10111010,
1000200022202000,
10111010,
10111020,
22101220,
1000200022202000,
10222020,
1000101022202000,
10222020,
1000101022202000,
10222020,
1000101022202000,
0202,
2022,
#M
1001101010001000,
1001101010002000,
1001101010001000,
1000200022202000,
1001101010001000,
1001101010002000,
22101220,
1000200022202000,
1002202020002000,
1001101022202000,
1002202020002000,
1001101022202000,
1002202020002000,
1001101022202000,
0202,
2022,
#GOGOSTART
#SECTION
#BRANCHSTART p,75,90
#N
10111010,
10111020,
10111010,
3333,
20222020,
20222010,
20222020,
4444,
#GOGOEND
12121212,
1,
12121212,
1000200022202000,
#E
1001101010001000,
1001101010002000,
1001101010001000,
3333,
2002202020002000,
2002202020001000,
2002202020002000,
4444,
#GOGOEND
12121212,
1,
12121212,
1000200022202000,
#M
1001101011001000,
1001101011002000,
1001101011001000,
3333,
2002202022002000,
2002202022001000,
2002202022002000,
4444,
#GOGOEND
12121212,
1,
12121212,
1000200022202000,
#SECTION
#BRANCHSTART p,75,90
#N
10111010,
1110,
10111010,
10202220,
10111010,
1110,
22201110,
10202220,
10222020,
10112020,
10222020,
10112020,
10222020,
10112020,
0202,
2022,
#E
10111010,
10111020,
10111010,
1000200022202000,
10111010,
10111020,
22101220,
1000200022202000,
10222020,
1000101022202000,
10222020,
1000101022202000,
10222020,
1000101022202000,
0202,
2022,
#M
1001101010001000,
1001101010002000,
1001101010001000,
1000200022202000,
1001101010001000,
1001101010002000,
22101220,
1000200022202000,
1002202020002000,
1001101022202000,
1002202020002000,
1001101022202000,
1002202020002000,
1001101022202000,
0202,
2022,
#GOGOSTART
#SECTION
#BRANCHSTART p,75,90
#N
10111010,
10111020,
10111010,
3333,
20222020,
20222010,
20222020,
4444,
10111010,
10111020,
10111010,
3333,
20222020,
20222010,
20222020,
4444,
#GOGOEND
3,
#E
1001101010001000,
1001101010002000,
1001101010001000,
3333,
2002202020002000,
2002202020001000,
2002202020002000,
4444,
1001101010001000,
1001101010002000,
1001101010001000,
3333,
2002202020002000,
2002202020001000,
2002202020002000,
4444,
#GOGOEND
3,
#M
1001101011001000,
1001101011002000,
1001101011001000,
3333,
2002202022002000,
2002202022001000,
2002202022002000,
4444,
1001101011001000,
1001101011002000,
1001101011001000,
3333,
2002202022002000,
2002202022001000,
2002202022002000,
4444,
#GOGOEND
3,
#BRANCHEND
#END
COURSE:Normal
LEVEL:3
BALLOON:5,5
SCOREINIT:750
SCOREDIFF:210
#START
100000000000000000000000100000000000000000000000,
100000000000000000000000000000000000000000000000,
100000000000000000000000100000000000000000000000,
100000000000000000000000000000000000000000000000,
100000000000200000000000000000000000200000000000,
100000000000200000000000000000000000200000000000,
100000000000200000000000000000000000200000000000,
100000000000000000000000200000000000000000000000,
100000000000200000000000000000000000200000000000,
100000000000200000000000000000000000200000000000,
500000000000000000000000800000000000000000000000,
100000000000000000000000200000000000200000000000,
100000000000100000000000100000000000100000000000,
100000000000000000000000000000000000000000000000,
200000000000200000000000200000000000200000000000,
000000000000000000000000000000000000000000000000,
100000000000100000000000100000000000100000000000,
100000000000000000000000000000000000000000000000,
9,
8,
#GOGOSTART
100000000000100000000000100000000000100000000000,
100000000000000000000000200000000000000000000000,
200000000000200000000000200000000000200000000000,
300000000000300000000000300000000000300000000000,
100000000000100000000000100000000000100000000000,
100000000000000000000000200000000000000000000000,
200000000000200000000000200000000000200000000000,
300000000000300000000000300000000000300000000000,
#GOGOEND
100000000000000000000000100000000000000000000000,
100000000000000000000000000000000000000000000000,
100000000000000000000000100000000000000000000000,
100000000000000000000000000000000000000000000000,
100000000000200000000000000000000000200000000000,
100000000000200000000000000000000000200000000000,
100000000000200000000000000000000000200000000000,
100000000000000000000000200000000000200000000000,
100000000000200000000000000000000000200000000000,
100000000000200000000000000000000000200000000000,
500000000000000000000000800000000000000000000000,
100000000000000000000000200000000000200000000000,
100000000000100000000000100000000000100000000000,
100000000000000000000000000000000000000000000000,
200000000000200000000000200000000000200000000000,
000000000000000000000000000000000000000000000000,
100000000000100000000000100000000000100000000000,
100000000000000000000000000000000000000000000000,
9,
8,
#GOGOSTART
100000000000100000000000100000000000100000000000,
100000000000000000000000200000000000000000000000,
200000000000200000000000200000000000200000000000,
300000000000300000000000300000000000300000000000,
100000000000100000000000100000000000100000000000,
100000000000000000000000200000000000000000000000,
200000000000200000000000200000000000200000000000,
300000000000300000000000300000000000300000000000,
100000000000100000000000100000000000100000000000,
100000000000000000000000200000000000000000000000,
200000000000200000000000200000000000200000000000,
300000000000300000000000300000000000300000000000,
100000000000100000000000100000000000100000000000,
100000000000000000000000200000000000000000000000,
200000000000200000000000200000000000200000000000,
300000000000300000000000400000000000400000000000,
#GOGOEND
300000000000000000000000000000000000000000000000,
#END
COURSE:Easy
LEVEL:3
BALLOON:4,4
SCOREINIT:770
SCOREDIFF:280
#START
100000000000000000000000100000000000000000000000,
100000000000000000000000000000000000000000000000,
100000000000000000000000100000000000000000000000,
100000000000000000000000000000000000000000000000,
100000000000000000000000100000000000000000000000,
100000000000100000000000000000000000000000000000,
100000000000000000000000100000000000100000000000,
100000000000000000000000000000000000000000000000,
100000000000000000000000100000000000000000000000,
100000000000100000000000000000000000000000000000,
100000000000100000000000100000000000000000000000,
200000000000000000000000200000000000000000000000,
100000000000000000000000100000000000100000000000,
100000000000000000000000000000000000000000000000,
200000000000000000000000200000000000200000000000,
000000000000000000000000000000000000000000000000,
100000000000000000000000100000000000100000000000,
100000000000000000000000000000000000000000000000,
9,
8,
#GOGOSTART
100000000000000000000000100000000000000000000000,
100000000000100000000000000000000000000000000000,
200000000000000000000000200000000000000000000000,
300000000000000000000000300000000000000000000000,
100000000000000000000000100000000000000000000000,
100000000000100000000000000000000000000000000000,
200000000000000000000000200000000000000000000000,
300000000000000000000000300000000000000000000000,
#GOGOEND
300000000000000000000000000000000000000000000000,
000000000000000000000000000000000000000000000000,
000000000000000000000000000000000000000000000000,
300000000000000000000000000000000000000000000000,
100000000000000000000000100000000000000000000000,
100000000000100000000000000000000000000000000000,
100000000000000000000000100000000000100000000000,
100000000000000000000000000000000000000000000000,
100000000000000000000000100000000000000000000000,
100000000000100000000000000000000000000000000000,
100000000000100000000000100000000000000000000000,
200000000000000000000000200000000000000000000000,
100000000000000000000000100000000000100000000000,
100000000000000000000000000000000000000000000000,
200000000000000000000000200000000000200000000000,
000000000000000000000000000000000000000000000000,
100000000000000000000000100000000000100000000000,
100000000000000000000000000000000000000000000000,
9,
8,
#GOGOSTART
100000000000000000000000100000000000000000000000,
100000000000100000000000000000000000000000000000,
200000000000000000000000200000000000000000000000,
300000000000000000000000300000000000000000000000,
100000000000000000000000100000000000000000000000,
100000000000100000000000000000000000000000000000,
200000000000000000000000200000000000000000000000,
300000000000000000000000300000000000000000000000,
100000000000000000000000100000000000000000000000,
100000000000100000000000000000000000000000000000,
200000000000000000000000200000000000000000000000,
300000000000000000000000300000000000000000000000,
100000000000000000000000100000000000000000000000,
100000000000100000000000000000000000000000000000,
200000000000000000000000200000000000000000000000,
300000000000000000000000300000000000000000000000,
#GOGOEND
300000000000000000000000000000000000000000000000,
#END