Files
ESE/02 Anime/Alola!!/Alola!!.tja
T
2023-06-15 19:05:10 -05:00

300 lines
3.4 KiB
Plaintext
Raw Blame History

This file contains ambiguous Unicode characters
This file contains Unicode characters that might be confused with other characters. If you think that this is intentional, you can safely ignore this warning. Use the Escape button to reveal them.
//TJADB Project
TITLE:Alola‼
TITLEJA:FIXME
SUBTITLE:--Tomohisa Sako/Pokémon the Series: Sun & Moon
BPM:153
WAVE:Alola!!.ogg
OFFSET:-5.209
DEMOSTART:59.914
BGMOVIE:Alola!!.mp4
COURSE:Oni
LEVEL:7
BALLOON:5
SCOREINIT:680
SCOREDIFF:190
#START
00070080,
#GOGOSTART
1011201000112010,
2220222010222010,
0020200020220020,
0020201020020020,
1011201000112010,
2220222010201000,
3003004030030040,
3003004000202010,
#GOGOEND
0011101020222010,
2011202000202010,
0011101020222020,
1022102000202010,
01210121,
0010201002202030,
40034003,
0040304030002011,
1011201110112022,
1010222000202011,
1011201110112022,
1010112000202011,
2022101120221011,
2022101120200050,
000000000000000000000000000000000008000000300000,
04343001,
0010201120102210,
1022202000102010,
0020102210201120,
2011101000102010,
0010201120100030,
03440121,
0020102210200040,
04330120,
3004004030040040,
3000000000000011,
#GOGOSTART
1010201110102011,
1011202210202011,
1011202210102010,
0010201120004000,
1010201110102011,
1011202210202011,
1011202210102010,
0010202210112030,
0040304030002220,
1000100010020010,
0010203000302220,
1000100010011020,
1022101022101020,
03404000,
#GOGOEND
1011201000112010,
2220222010221020,
0022102011221050,
000000000000000000000000000000000000000000000008,
#END
COURSE:Hard
LEVEL:4
BALLOON:17,12,12
SCOREINIT:730
SCOREDIFF:200
#START
,
#GOGOSTART
11210120,
11102220,
000000500000000000000000000000000000000008000000,
000000500000000000000000000000000008000000000000,
11210120,
11102220,
7,
00000800,
#GOGOEND
11102220,
10220000,
11102220,
10220000,
10220222,
02220203,
40034003,
04343000,
11202220,
10220000,
11202220,
10220000,
11201120,
11207000,
00000803,
04343000,
11201220,
11220000,
11201220,
11220000,
11201203,
03440000,
11201203,
03440000,
9009,
8,//35
#GOGOSTART
1010200011102010,
01221021,
0010200011102010,
01221040,
1010200011102010,
01221021,
0010200022201050,
000000000000000000000000000008000000000000300000,
04343000,
1000100010010010,
00040400,
1122,
30343044,
03304000,//49
#GOGOEND
11210120,
12121121,
02121125,
000000000000000000000000000000000000000000000008,
,
,
#END
COURSE:Normal
LEVEL:3
BALLOON:14,9,6,6,9,6,6,7,20
#START
,//1
#GOGOSTART
1202,
1110,
000000500000000000000000000000000000000008000000,
000000500000000000000000000000000008000000000000,
1202,
1110,
7,
00000800,//9
#GOGOEND
1110,
1,
2220,
2,
12,
12,
30003006,
000000000000000000000008000000000000000000000000,
1111,
1,
2222,
2,
1111,
1170,
00000806,
000000000000000000000000000008000000000000000000,
1122,
1100,
3344,
3300,
20201007,
00000800,
40403007,
00000800,
9009,
8,//35
#GOGOSTART
1112,
1120,
10102027,
00000800,
1112,
1120,
10102027,
00000806,
000000000000000000000008000000000000000000000000,
7,
80030300,
2220,
3344,
03303000,//49
#GOGOEND
1202,
10101009,
,
09,
8,
,
#END
COURSE:Easy
LEVEL:2
BALLOON:9,6,4,4,6,4,4,5,14
#START
,//1
#GOGOSTART
11,
1110,
,
,
11,
1110,
7,
00000800,//9
#GOGOEND
11,
1,
11,
1,
1,
2,
30003006,
08,
11,
1,
22,
2,
11,
17,
00000806,
08,
1011,
1,
2022,
2,
10001007,
00000800,
20002007,
00000800,
9009,
8,//35
#GOGOSTART
1110,
1110,
10101007,
00000800,
2220,
2220,
20202007,
00000806,
08,
7,
80030000,
11,
3333,
06000800,//49
#GOGOEND
11,
10101009,
,
09,
8,
,
#END