Files
ESE/02 Anime/Brand-new World/Brand-new World.tja
T
2023-01-17 00:45:18 -05:00

366 lines
15 KiB
Plaintext

//TJADB Project
TITLE:Brand-new World
TITLEJA:Brand-new World
SUBTITLE:--WEST GROUND feat. Shiena Nishizawa/The Asterisk War
SUBTITLEJA:「学戦都市アスタリスク」より
BPM:205
WAVE:Brand-new World.ogg
OFFSET:-3.615
DEMOSTART:50.872
COURSE:Oni
LEVEL:8
BALLOON:10,15,18
SCOREINIT:930
SCOREDIFF:265
#START
000000000000000000000000000000300000300000300000,
000000100000200000000000100000100000200000100000,
000000100000200000000000100100100000200000000000,
100000000000200000000000100000100000200000100000,
000000100000200000000000100000100100200000000000,
100000000000200000000000100000100000200000100000,
000000100000200000000000100100100000200000000000,
100000000000100000000000100000000000100000000000,
100000100000100000100000100100100100000000000000,
100000000000000000000000000000000000000000000000,
000000000000000000000000000000000000000000000000,
100000000000000000000000000000000000000000000000,
000000000000000000000000000000000000000000000000,
100000000000000000000000000000000000000000000000,
000000000000000000000000000000000000000000000000,
100000000000000000000000700000000000000000000000,
000000000000000000000000800000000000200000000000,
100000000000200000100000000000100000200000000000,
100000000000200000000000100000100000200000000000,
100000000000200000100000000000100000200000000000,
100000000000200000100000000000100100200000000000,
100000000000200000100000000000100000200000000000,
100000000000200000100000000000100100200000000000,
100000000000200000100000000000100000200000000000,
100000000000200000000000000000200000200000200000,
100100100000100000200000000000200000200000200000,
100100100000100000200000000000200000200000200000,
100100100000100000200000000000200000100000100000,
000000200000000000200000100000100000200000000000,
100100100000100000200000000000200200200000200000,
100100100000100000200000000000200200200000200000,
100100100000100000200000000000200000100000100000,
000000200000000000200000100100100000200000100000,
000000000000000000000000000000000000000000000000,
000000000000000000000000000000000000000000000000,
000000000000000000000000000000000000000000000000,
000000000000000000000000000000000000000000000000,
000000000000000000000000000000000000000000000000,
000000000000000000000000000000000000000000000000,
000000000000000000000000000000000000000000000000,
000000000000000000400000400000400000
#GOGOSTART
000000100000,
000000100000200000100100100000100000200000100000,
000000100000200000100000000000200000000000100100,
100000100000200000100000000000100000200000100000,
000000100000200000000000100000100100200000000000,
100000100000200000000000100100100000200000100000,
000000100000200000000000100000100100200000000000,
700000000000000000000000000000000000000000000000,
000000800000000000100100100000200000000000100000,
000000100000200000100100100000100000200000100000,
000000100000200000100100100000100000200000100100,
100000100000200000100000000000100000200000100000,
000000100000200000000000200000100100200000000000,
100000200000100000200200100000100000200000200200,
100000100000200000000000100000100100200000000000,
700000000000000000000000000000000000000000000000,
000000000000000000000000800000000000200000000000,
200000000000200000200000100000200000000000200000,
100000000000200000200000100000200000000000100000,
000000100100200000200000100000100000200000100000,
000000100000100000000000200000000000200000200000,
100000000000200000100100200000200000100100200000,
200000100100200000200000100000600000000000000000,
000000000000000000000000000000000008000000000000,
000000300000000000300000300000300000
#GOGOEND
000000100000,
000000100000200000000000100000100000200000100000,
000000100000200000100000100000100000200000000000,
100000100000100000100000100000100000100000100000,
100000200200100000100000200200100000200000200000,
#END
COURSE:Hard
LEVEL:6
BALLOON:6,9,11,12
SCOREINIT:980
SCOREDIFF:298
#START
000000000000000000000000000000300000300000300000,
000000100000200000000000100000000000200000200000,
000000100000000000100000000000100000100000000000,
100000000000100000000000200000000000100000100000,
000000100000000000100000000000100000100000000000,
100000000000100000000000200000000000100000100000,
000000100000000000100000000000100000100000000000,
300000000000300000000000300000000000300000000000,
700000000000000000000000000000800000000000000000,
100000000000000000000000000000000000000000000000,
000000000000000000000000000000000000000000000000,
100000000000000000000000000000000000000000000000,
000000000000000000000000000000000000000000000000,
100000000000000000000000000000000000000000000000,
000000000000000000000000000000000000000000000000,
100000000000000000000000700000000000000000000000,
000000000000000000800000000000000000200000000000,
100000000000100000100000000000100000100000000000,
100000000000200000000000100000100000200000000000,
100000000000100000100000000000100000100000000000,
100000000000200000100000000000100000200000000000,
100000000000100000100000000000100000100000000000,
100000000000200000100000000000000000200000000000,
100000000000200000100000000000000000200000000000,
100000100000200000000000000000200000200000000000,
100000000000100000100000000000200000200000000000,
100000000000100000100000000000200000200000000000,
100000000000000000100000000000000000600000000000,
000000800000000000000000000000000000200000000000,
100000000000100000100000000000200000200000200000,
100000000000100000100000000000200000200000200000,
100000000000000000100000000000000000600000000000,
000000800000000000000000000000000000000000000000,
000000000000000000000000000000000000000000000000,
000000000000000000000000000000000000000000000000,
000000000000000000000000000000000000000000000000,
000000000000000000000000000000000000000000000000,
000000000000000000000000000000000000000000000000,
000000000000000000000000000000000000000000000000,
000000000000000000000000000000000000000000000000,
000000000000000000400000400000400000
#GOGOSTART
000000100000,
000000200000200000000000200000000000100000200000,
000000200000000000100000100000200000000000200000,
200000000000100000200000000000200000000000200000,
000000000000300000000000300000000000400000000000,
100000000000200000200000000000100000100000200000,
000000200000000000000000300000000000400000000000,
700000000000000000000000000000000000000000000000,
800000000000000000400000400000400000000000100000,
000000200000200000000000200000000000100000200000,
000000200000000000100000100000200000000000200000,
200000000000100000200000000000200000000000200000,
000000000000300000000000300000000000400000000000,
100000000000200000200000000000100000100000200000,
000000200000000000000000300000000000400000000000,
700000000000000000000000000000000000000000000000,
000000000000000000800000000000000000200000000000,
200000000000200000100000000000200000000000200000,
100000000000200000200000000000200000000000100000,
000000200000200000100000100000200000000000500000,
000000000000800000000000000000000000100000000000,
200000000000200000100000000000200000100000000000,
200000100000000000200000100000600000000000000000,
000000000000000000000000000000800000000000000000,
000000300000000000300000300000300000
#GOGOEND
000000100000,
000000100000100000000000200000000000200000200000,
000000200000000000200000100000100000200000000000,
100000100000100000100000100000100000100000100000,
100000200000200000100000200000100000200000200000,
#END
COURSE:Normal
LEVEL:5
BALLOON:5,7,6,9,10
SCOREINIT:1220
SCOREDIFF:518
#START
000000000000000000000000000000000000000000300000,
000000000000200000000000000000000000200000000000,
000000000000200000000000000000000000200000000000,
100000000000200000000000000000000000200000000000,
000000000000200000000000000000000000200000000000,
100000000000200000000000000000000000200000000000,
000000000000200000000000000000000000200000000000,
300000000000300000000000300000000000300000000000,
700000000000000000000000000000800000000000000000,
100000000000000000000000000000000000000000000000,
000000000000000000000000000000000000000000000000,
100000000000000000000000000000000000000000000000,
000000000000000000000000000000000000000000000000,
100000000000000000000000000000000000000000000000,
000000000000000000000000000000000000000000000000,
100000000000000000000000700000000000000000000000,
000000000000000000800000000000000000000000000000,
100000000000200000000000000000000000200000000000,
100000000000200000000000100000000000200000000000,
100000000000200000000000000000000000200000000000,
100000000000200000000000100000000000200000000000,
100000000000000000100000000000000000100000000000,
200000000000000000200000000000000000200000000000,
100000000000000000100000000000000000700000000000,
600000000000000000800000000000000000000000000000,
300000000000000000400000000000000000000000000000,
300000000000000000400000000000000000000000000000,
600000000000000000000000000000000000000000000000,
000000800000000000000000000000000000000000000000,
300000000000000000400000000000000000000000000000,
300000000000000000400000000000000000000000000000,
600000000000000000000000000000000000000000000000,
000000800000000000000000000000000000000000000000,
000000000000000000000000000000000000000000000000,
000000000000000000000000000000000000000000000000,
000000000000000000000000000000000000000000000000,
000000000000000000000000000000000000000000000000,
000000000000000000000000000000000000000000000000,
000000000000000000000000000000000000000000000000,
000000000000000000000000000000000000000000000000,
000000000000000000000000000000000000
#GOGOSTART
000000300000,
000000100000100000000000100000000000100000100000,
000000100000000000100000000000100000000000100000,
100000000000100000100000000000200000000000200000,
000000000000000000000000000000000000000000000000,
200000000000200000200000000000200000000000200000,
000000200000000000000000000000000000000000000000,
700000000000000000000000000000000000000000000000,
800000000000000000000000000000000000000000300000,
000000100000100000000000100000000000100000100000,
000000100000000000100000000000100000000000100000,
100000000000100000100000000000200000000000200000,
000000000000000000000000000000000000000000000000,
200000000000200000200000000000200000000000200000,
000000200000000000000000000000000000000000000000,
700000000000000000000000000000000000000000000000,
800000000000000000000000000000000000200000000000,
100000000000100000100000000000100000000000200000,
200000000000200000200000000000200000000000100000,
000000100000100000000000100000100000000000500000,
000000000000800000000000000000000000100000000000,
100000000000100000100000000000100000100000000000,
100000100000000000600000000000000000000000000000,
000000000000000000000000000000800000000000000000,
000000300000000000000000300000000000
#GOGOEND
000000000000,
000000000000200000000000000000000000200000000000,
000000000000200000000000000000000000200000000000,
100000100000100000100000100000100000100000100000,
500000000000000000000000000000000000800000000000,
#END
COURSE:Easy
LEVEL:4
BALLOON:3,4,3,5,5,2
SCOREINIT:1180
SCOREDIFF:930
#START
#SCROLL 0.67
000000000000000000000000000000000000000000300000,
000000000000000000000000000000000000000000000000,
000000000000000000000000000000000000000000000000,
300000000000000000000000000000000000000000000000,
000000000000000000000000000000000000000000000000,
300000000000000000000000000000000000000000000000,
000000000000000000000000000000000000000000000000,
300000000000300000000000300000000000300000000000,
700000000000000000000000000000800000000000000000,
100000000000000000000000000000000000000000000000,
000000000000000000000000000000000000000000000000,
100000000000000000000000000000000000000000000000,
000000000000000000000000000000000000000000000000,
100000000000000000000000000000000000000000000000,
000000000000000000000000000000000000000000000000,
100000000000000000000000700000000000000000000000,
000000000000000000800000000000000000000000000000,
100000000000000000000000000000000000000000000000,
100000000000000000000000100000000000000000000000,
100000000000000000000000000000000000000000000000,
100000000000000000000000100000000000000000000000,
300000000000000000000000000000000000000000000000,
300000000000000000000000000000000000000000000000,
300000000000000000000000000000000000700000000000,
000000000000000000800000000000000000000000000000,
300000000000000000300000000000000000000000000000,
300000000000000000300000000000000000000000000000,
600000000000000000000000000000000000000000000000,
000000800000000000000000000000000000000000000000,
300000000000000000300000000000000000000000000000,
300000000000000000300000000000000000000000000000,
600000000000000000000000000000000000000000000000,
000000800000000000000000000000000000000000000000,
000000000000000000000000000000000000000000000000,
000000000000000000000000000000000000000000000000,
000000000000000000000000000000000000000000000000,
000000000000000000000000000000000000000000000000,
000000000000000000000000000000000000000000000000,
000000000000000000000000000000000000000000000000,
000000000000000000000000000000000000000000000000,
000000000000000000000000000000000000
#GOGOSTART
000000300000,
000000000000000000000000200000000000000000000000,
100000000000000000000000200000000000000000000000,
100000000000000000100000000000100000000000500000,
000000000000800000000000000000000000000000000000,
100000000000200000000000000000000000200000000000,
000000000000200000000000000000000000200000000000,
700000000000000000000000000000000000000000000000,
800000000000000000000000000000000000000000300000,
000000000000000000000000200000000000000000000000,
100000000000000000000000200000000000000000000000,
100000000000000000100000000000100000000000500000,
000000000000000000800000000000000000000000000000,
100000000000200000000000000000000000200000000000,
000000000000200000000000000000000000200000000000,
700000000000000000000000000000000000000000000000,
800000000000000000000000000000000000000000000000,
100000000000000000000000000000000000000000000000,
200000000000000000000000000000000000000000500000,
000000000000000000000000800000000000000000700000,
000000000000000000000000000000000000000000000000,
000000200000800000000000000000000000000000000000,
300000000000000000300000000000000000300000000000,
000000300000000000600000000000000000000000000000,
000000000000000000000000800000000000000000000000,
000000300000000000000000300000000000
#GOGOEND
000000000000,
000000000000200000000000000000000000200000000000,
000000000000200000000000000000000000200000000000,
100000000000100000000000100000000000100000000000,
500000000000000000000000000000000000800000000000,
#END