436 lines
12 KiB
Plaintext
436 lines
12 KiB
Plaintext
//TJADB Project
|
|
TITLE:Dramatic
|
|
TITLEJA:ドラマチック
|
|
SUBTITLE:--Koichi Tsutaya feat. YUKI/Honey and Clover
|
|
SUBTITLEJA:「ハチミツとクローバー」より
|
|
BPM:164
|
|
WAVE:Dramatic.ogg
|
|
OFFSET:-1.634
|
|
DEMOSTART:45.177
|
|
|
|
COURSE:Oni
|
|
LEVEL:8
|
|
BALLOON:11,11,11
|
|
SCOREINIT:750
|
|
SCOREDIFF:190
|
|
|
|
|
|
#START
|
|
|
|
|
|
1,
|
|
1012,
|
|
500000000000000000000000000000000000000000000008,
|
|
0012,
|
|
1112,
|
|
1000200010111011,
|
|
1000200010112010,
|
|
0010202210102011,
|
|
1010200010112010,
|
|
,
|
|
|
|
#SECTION
|
|
#BRANCHSTART p,75,90
|
|
#N
|
|
1000100010001022,
|
|
1000101110111022,
|
|
1000100010001022,
|
|
11201120,
|
|
3000202210102000,
|
|
1000202210102010,
|
|
1000202210102000,
|
|
1000202210102010,
|
|
1000202210102000,
|
|
1000202210111000,
|
|
3000200010112010,
|
|
01101122,
|
|
10210120,
|
|
1000201000222020,
|
|
10210122,
|
|
10210000,
|
|
1011101000111010,
|
|
0011101011101000,
|
|
30001121,
|
|
500000000000000000000008000000000000000000000000,
|
|
|
|
#E
|
|
1000100010001022,
|
|
1000102210111022,
|
|
1000100010001022,
|
|
11201122,
|
|
3000202210102020,
|
|
1000202210102011,
|
|
1000202210102020,
|
|
1000202210102011,
|
|
1000202210102020,
|
|
1000202210111000,
|
|
3000200010112010,
|
|
01101122,
|
|
10210122,
|
|
1000201000222020,
|
|
10210122,
|
|
10210000,
|
|
1011101000221010,
|
|
0011101022101000,
|
|
30001121,
|
|
500000000000000000000008000000000000000000000000,
|
|
|
|
#M
|
|
1020102010201022,
|
|
1020102210111022,
|
|
1020102210201022,
|
|
11201122,
|
|
3000202210102022,
|
|
1000202210102011,
|
|
1000202210102022,
|
|
1000202210102011,
|
|
1000202210102022,
|
|
1000202210111000,
|
|
3000200010112010,
|
|
01101122,
|
|
10210122,
|
|
1000201000112020,
|
|
10210122,
|
|
10210000,
|
|
1011203000221030,
|
|
0011103022101000,
|
|
30001121,
|
|
500000000000000000000008000000000000000000000000,
|
|
|
|
#GOGOSTART
|
|
#SECTION
|
|
#BRANCHSTART p,75,90
|
|
#N
|
|
1020101110102010,
|
|
1020101110102020,
|
|
1020101110102010,
|
|
1020101110102020,
|
|
10210220,
|
|
10201120,
|
|
10210211,
|
|
20210000,
|
|
|
|
#E
|
|
1020101120102011,
|
|
1020101120102022,
|
|
1020101120102011,
|
|
1020101120102022,
|
|
10210220,
|
|
10201120,
|
|
10210211,
|
|
20210000,
|
|
|
|
#M
|
|
1020101122102011,
|
|
1020101122102022,
|
|
1020101122102011,
|
|
1020101122102022,
|
|
10210220,
|
|
10201120,
|
|
10210211,
|
|
20210000,
|
|
|
|
#SECTION
|
|
#BRANCHSTART p,75,90
|
|
#N
|
|
1020101110102010,
|
|
1020101110102020,
|
|
1020101110102010,
|
|
1020101110102020,
|
|
10210220,
|
|
10201120,
|
|
10221121,
|
|
0012,
|
|
10210070,
|
|
0008,
|
|
#GOGOEND
|
|
1000200010112010,
|
|
0010201110102011,
|
|
1010200010112010,
|
|
0010200010111011,
|
|
1000200010112010,
|
|
0010201110102011,
|
|
1010200010112010,
|
|
0010200010201110,
|
|
1010201000111050,
|
|
0000000000000000000000000000000000000000000000008,
|
|
|
|
#E
|
|
1020101120102011,
|
|
1020101120102022,
|
|
1020101120102011,
|
|
1020101120102022,
|
|
10210220,
|
|
10201120,
|
|
10221121,
|
|
0012,
|
|
10210070,
|
|
0008,
|
|
#GOGOEND
|
|
1000200010112010,
|
|
0010202210102011,
|
|
1010200010112010,
|
|
0010200010111111,
|
|
1000200010112010,
|
|
0010202210102011,
|
|
1010200010112010,
|
|
0010200010111110,
|
|
1011201000112050,
|
|
0000000000000000000000000000000000000000000000008,
|
|
|
|
#M
|
|
1020101122102011,
|
|
1020101122102022,
|
|
1020101122102011,
|
|
1020101122102022,
|
|
10210220,
|
|
10201120,
|
|
10221121,
|
|
0012,
|
|
10210070,
|
|
0008,
|
|
#GOGOEND
|
|
1000200010112030,
|
|
0010202210102011,
|
|
1010200010112030,
|
|
0010200010221111,
|
|
1000200010112030,
|
|
0010202210102011,
|
|
1010200010112030,
|
|
0010200010221110,
|
|
1011201000112050,
|
|
0000000000000000000000000000000000000000000000008,
|
|
|
|
#BRANCHEND
|
|
|
|
|
|
#END
|
|
|
|
|
|
COURSE:Hard
|
|
LEVEL:6
|
|
BALLOON:8
|
|
SCOREINIT:930
|
|
SCOREDIFF:240
|
|
|
|
|
|
#START
|
|
|
|
|
|
100000000000000000000000000000000000000000000000,
|
|
100000000000000000000000100000000000200000000000,
|
|
500000000000000000000000000000000000000000000800,
|
|
000000000000000000000000100000000000200000000000,
|
|
100000000000100000000000100000000000000000000000,
|
|
100000000000100000000000100000100100100000100100,
|
|
100000000000200000000000100000100100100000100000,
|
|
000000100000200000000000100000100000200000200000,
|
|
100000000000200000000000100000100100100000100000,
|
|
000000000000000000000000000000000000000000000000,
|
|
100000000000100000000000100000000000100000200000,
|
|
100000000000100000000000100000000000100000100100,
|
|
100000000000100000000000100000000000100000200000,
|
|
100000100000200000000000300000000000000000000000,
|
|
100000000000200000000000100000100000200000000000,
|
|
100000000000200000000000100000200000200000000000,
|
|
100000000000200000000000100000100000200000000000,
|
|
100000000000200000000000100000200000200000000000,
|
|
100000000000200000000000100000100000200000000000,
|
|
100000000000200000200000000000000000100000000000,
|
|
300000000000000000000000100000100000200000100000,
|
|
500000000000000000000000000000000800000000000000,
|
|
100000000000200000100000000000100000200000000000,
|
|
100000000000200000100000000000200200200000200000,
|
|
100000000000200000100000000000100000200000000000,
|
|
100000000000200000100000000000000000000000000000,
|
|
100000100100100000100000000000100100100000100000,
|
|
000000100100100000100000000000100000100000000000,
|
|
300000000000000000000000100000100000200000100000,
|
|
500000000000000000000000000800000000000000000000,
|
|
#GOGOSTART
|
|
100000000000100000000000100000100000200000000000,
|
|
100000000000100000000000100000100000200000200000,
|
|
100000000000100000000000100000100000200000000000,
|
|
100000000000100000000000100000100000200000200000,
|
|
100000000000200000100000000000200000200000000000,
|
|
100000000000200000000000100000000000200000000000,
|
|
100000000000200000100000000000200000100000000000,
|
|
500000000000000000000800000000000000000000000000,
|
|
100000000000100000000000100000100000200000000000,
|
|
100000000000100000000000100000100000200000200000,
|
|
100000000000500000000000000000000000000000000000,
|
|
000000000800000000000000100000000000200000000000,
|
|
100000000000200000100000000000200000200000000000,
|
|
100000000000200000000000100000000000200000000000,
|
|
100000000000100000100000200000200000100000200000,
|
|
000000000000000000000000100000000000200000000000,
|
|
100000000000200000100000000000000000700000000000,
|
|
000000000000000000000000000000000000800000000000,
|
|
#GOGOEND
|
|
100000000000200000000000100000100100100000100000,
|
|
000000100000200000000000100000100000200000200000,
|
|
100000000000200000000000100000100100100000100000,
|
|
000000000000000000000000200000000000200000000000,
|
|
100000000000200000000000100000100100100000100000,
|
|
000000100000200000000000100000100000200000200000,
|
|
100000000000200000000000100000100100100000100000,
|
|
000000100000200000100000000000000000000000000000,
|
|
100000100000200000100000000000100000200000500000,
|
|
000000000000000000000000000000000000000000000008,
|
|
|
|
|
|
#END
|
|
|
|
|
|
COURSE:Normal
|
|
LEVEL:4
|
|
BALLOON:6
|
|
SCOREINIT:1550
|
|
SCOREDIFF:360
|
|
|
|
|
|
#START
|
|
|
|
|
|
100000000000000000000000000000000000000000000000,
|
|
100000000000000000000000200000000000000000000000,
|
|
500000000000000000000000000000000000000000800000,
|
|
000000000000000000000000100000000000000000000000,
|
|
100000000000000000000000100000000000000000000000,
|
|
100000000000100000000000100000000000000000000000,
|
|
100000000000100000000000100000000000000000100000,
|
|
000000000000000000000000000000000000000000000000,
|
|
100000000000100000000000100000000000000000200000,
|
|
000000000000000000000000000000000000000000000000,
|
|
100000000000100000000000100000000000100000000000,
|
|
100000000000100000000000100000000000000000000000,
|
|
200000000000200000000000200000000000200000000000,
|
|
200000000000200000000000300000000000000000000000,
|
|
100000000000100000000000100000000000000000000000,
|
|
100000000000000000100000000000000000000000000000,
|
|
100000000000100000000000100000000000000000000000,
|
|
100000000000000000200000000000000000000000000000,
|
|
100000000000100000000000100000000000000000000000,
|
|
100000000000000000100000000000000000000000000000,
|
|
300000000000000000000000200000000000000000000000,
|
|
500000000000000000000000800000000000000000000000,
|
|
100000000000100000100000000000000000000000000000,
|
|
100000000000200000200000000000000000000000000000,
|
|
100000000000100000100000000000000000000000000000,
|
|
100000000000200000200000000000000000000000000000,
|
|
100000100000100000100000000000000000000000000000,
|
|
200000200000200000200000000000000000000000000000,
|
|
300000000000000000000000100000100000100000100000,
|
|
500000000000000000800000000000000000000000000000,
|
|
#GOGOSTART
|
|
100000000000100000000000100000100000100000000000,
|
|
100000000000100000000000100000000000000000000000,
|
|
100000000000100000000000100000100000100000000000,
|
|
100000000000000000000000100000000000000000000000,
|
|
100000000000200000000000000000000000200000000000,
|
|
100000000000200000000000000000000000200000000000,
|
|
500000000000000000000000000000000000000000000000,
|
|
000000000000000000800000000000000000000000000000,
|
|
100000000000100000000000100000100000100000000000,
|
|
100000000000100000000000100000000000000000000000,
|
|
500000000000000000000000000000000000000000800000,
|
|
000000000000000000000000100000000000000000000000,
|
|
100000000000200000000000000000000000200000000000,
|
|
100000000000200000000000000000000000200000000000,
|
|
500000000000000000000000000000000000000000800000,
|
|
000000000000000000000000200000000000200000000000,
|
|
100000000000100000000000100000000000000000700000,
|
|
000000000000000000000000000000000000000000000000,
|
|
000000600000000000000000000000800000000000000000,
|
|
#GOGOEND
|
|
100000000000100000000000100000000000000000100000,
|
|
000000000000000000000000000000000000000000000000,
|
|
100000000000100000000000100000000000000000200000,
|
|
000000000000000000000000000000000000000000000000,
|
|
100000000000100000000000100000000000000000300000,
|
|
000000000000000000000000000000000000000000000000,
|
|
100000000000100000000000100000000000000000400000,
|
|
000000000000000000000000000000000000000000000000,
|
|
100000000000100000100000000000100000100000500000,
|
|
000000000000000000000000000000000000000000000008,
|
|
|
|
|
|
#END
|
|
|
|
|
|
COURSE:Easy
|
|
LEVEL:4
|
|
BALLOON:5
|
|
SCOREINIT:1010
|
|
SCOREDIFF:370
|
|
|
|
|
|
#START
|
|
|
|
|
|
100000000000000000000000000000000000000000000000,
|
|
100000000000000000000000200000000000000000000000,
|
|
500000000000000000000000000000000000000000800000,
|
|
000000000000000000000000000000000000000000000000,
|
|
100000000000000000000000100000000000000000000000,
|
|
100000000000100000000000100000000000000000000000,
|
|
100000000000000000000000100000000000000000100000,
|
|
000000000000000000000000000000000000000000000000,
|
|
100000000000000000000000100000000000000000200000,
|
|
000000000000000000000000000000000000000000000000,
|
|
100000000000100000000000100000000000100000000000,
|
|
100000000000000000000000000000000000000000000000,
|
|
200000000000200000000000200000000000200000000000,
|
|
200000000000000000000000000000000000000000000000,
|
|
100000000000000000000000100000000000000000000000,
|
|
100000000000000000000000200000000000000000000000,
|
|
100000000000000000000000100000000000000000000000,
|
|
100000000000000000000000200000000000000000000000,
|
|
100000000000000000000000100000000000000000000000,
|
|
100000000000000000000000200000000000000000000000,
|
|
300000000000000000000000200000000000000000000000,
|
|
500000000000000000000000000000800000000000000000,
|
|
300000000000000000000000000000000000000000000000,
|
|
100000000000000000200000000000000000000000000000,
|
|
300000000000000000000000000000000000000000000000,
|
|
100000000000000000200000000000000000000000000000,
|
|
100000000000100000100000000000000000000000000000,
|
|
200000000000200000200000000000000000000000000000,
|
|
300000000000000000000000100000000000100000000000,
|
|
500000000000000000000000000000800000000000000000,
|
|
#GOGOSTART
|
|
100000000000000000000000100000000000000000000000,
|
|
100000000000100000000000100000000000100000000000,
|
|
100000000000000000000000100000000000000000000000,
|
|
300000000000000000000000100000000000000000000000,
|
|
100000000000100000000000000000000000000000000000,
|
|
100000000000100000000000000000000000000000000000,
|
|
300000000000000000000000400000000000000000000000,
|
|
500000000000000000800000000000000000000000000000,
|
|
100000000000000000000000100000000000000000000000,
|
|
100000000000100000000000100000000000000000000000,
|
|
500000000000000000000000000000000000000000800000,
|
|
000000000000000000000000100000000000000000000000,
|
|
100000000000100000000000000000000000000000000000,
|
|
300000000000000000000000400000000000000000000000,
|
|
500000000000000000000000000000000000000000800000,
|
|
000000000000000000000000100000000000000000000000,
|
|
100000000000100000000000100000000000000000700000,
|
|
000000000000000000000000000000000000000000000000,
|
|
000000500000000000000000000000800000000000000000,
|
|
#GOGOEND
|
|
100000000000000000000000100000000000000000100000,
|
|
000000000000000000000000000000000000000000000000,
|
|
100000000000000000000000100000000000000000200000,
|
|
000000000000000000000000000000000000000000000000,
|
|
100000000000000000000000100000000000000000300000,
|
|
000000000000000000000000000000000000000000000000,
|
|
100000000000000000000000100000000000000000400000,
|
|
000000000000000000000000000000000000000000000000,
|
|
100000000000100000000000100000000000000000500000,
|
|
000000000000000000000000000000000000000000000008,
|
|
|
|
|
|
#END
|
|
|