Files
ESE/02 Anime/GALAXY EXPRESS 999/GALAXY EXPRESS 999.tja
T
2023-06-15 19:15:39 -05:00

398 lines
15 KiB
Plaintext

//TJADB Project
TITLE:GALAXY EXPRESS 999
TITLEJA:GALAXY EXPRESS 999
SUBTITLE:--GODIEGO/The Galaxy Express 999
SUBTITLEJA:劇場用アニメ「銀河鉄道999」より
BPM:142
WAVE:GALAXY EXPRESS 999.ogg
OFFSET:-0.293
DEMOSTART:49.937
COURSE:Oni
LEVEL:6
BALLOON:12
SCOREINIT:470
SCOREDIFF:130
#START
#BARLINEOFF
000000000000000000000000000000000000000000000000,
#BARLINEON
000000000000000000000000000000000000000000000000,
100000200000200000100000200200000200200000000000,
100000200000200000100000200200000200200000000000,
100000100100200000100000100000200000100000000000,
100000100100100000200000100000200000100000000000,
100000100100200000100000100000200000100000000000,
100000100100100000200000100000200000100000000000,
100000100100200000200000200200200000100000200000,
100000100100200000200000200000100200200000000000,
100000100100200000200000200200200000100000200000,
100000100100200000200000200000100200200000000000,
100000000000200000200000100000200200200000000000,
100000000000200000200000100000200200200000000000,
100000100100200000000000200000200200200000000000,
100000100100200000000000200000200200200000000000,
100000200200100000200000100000100000200000000000,
100000200200100000200000100000100000200000000000,
100000200100100000200000100100200000100000200000,
100000200100100000200000000000200200200000000000,
100000200000100000200000100000200000100000200000,
100000200000100000000000200000200000200000000000,
100000200000100000200000100000200000100000200000,
100000200000200000300000000000000000000000000000,
100000200000100000200000100000200000100000200000,
100000200000100000000000200000200000200000000000,
000000100100200000200000100100200000200000000000,
000000100100200000200000100100200000200000000000,
#MEASURE 6/4
000000000000000000300000000000000000000000300000000000000000000000000000,
#GOGOSTART
#MEASURE 4/4
300000000000100000200200100000200000200200200000,
100000100200200000100000200000100000200200200000,
100000200200100000200000100000200200100000200000,
100000200200100000100000200000200200000200200000,
200000000000300000300000000000200000200200200000,
400000000000000000000000000000000000000000000000,
#GOGOEND
100000200000200000100000200200000200200000200000,
100000200000200000100000200200000200200000000000,
100000200200200000100000200200000200200000200000,
100000200200200000100000200200000200200000000000,
100000100100200000100000100000200000200000000000,
100000100100100000200000100000200000200000000000,
100000100100200000100000100000200000200000000000,
100000100100100000200000100000200000200000000000,
100000100100200000200000100200200000100000200000,
100000100100200000200000200000100200200000000000,
100000100100200000200000100200200000100000200000,
100000100100200000200000200000100200200000000000,
100000000100200000200000100000200200200000200000,
100000000100200000200000100000200200200000200000,
100000000100200000200000100000200200200000200000,
100000000100200000200000100000200200200000200000,
100000200200100000200000100000100000200000000000,
100000200200100000200000100000100000200000000000,
100000200100100000200000100100200000100000200000,
100000200100100000200000000000200200200000000000,
100000200000100000200000100000200000100000200000,
100000200000100000000000200200200000200000000000,
100000200000100000200000100000200000100000200000,
100000200000200000300000000000000000000000000000,
100000200000100000200000100000200000100000200000,
100000200000100000000000200200200000200000000000,
300000100100200000200000100100200000200000000000,
300000100100200000200000100100200000200000000000,
#MEASURE 6/4
000000000000000000300000000000000000000000300000000000000000000000000000,
#GOGOSTART
#MEASURE 4/4
300000000000100000200200100000200000200200200000,
100000100200200000100000200000100000200200200000,
100000200200100000200000100000200200100000200000,
100000200200100000100000200000200200000200200000,
200000000000300000300000000000200000200200200000,
700000000000000000000000000000000000000000000008,
#GOGOEND
#END
COURSE:Hard
LEVEL:3
SCOREINIT:320
SCOREDIFF:180
#START
000000000000000000000000000000000000000000000000,
000000000000000000000000000000000000000000000000,
100000000000000000100000000000000000000000000000,
100000000000000000100000000000000000000000000000,
100000000000100000000000100000200000000000000000,
100000000000100000000000100000200000000000000000,
100000000000100000000000100000200000000000000000,
100000000000100000000000100000200000000000000000,
100000100000100000100000000000100000200000000000,
100000000000100000000000100000200000000000000000,
100000100000100000100000000000100000200000000000,
100000000000100000000000100000200000000000000000,
100000000000100000000000100000100000200000000000,
100000000000100000000000100000100000200000000000,
100000000000100000000000100000100000200000000000,
100000000000100000000000100000100000200000000000,
100000100000100000100000000000100000200000000000,
100000000000100000000000100000200000000000000000,
100000100000100000100000000000100000200000000000,
100000000000100000000000200000100000000000000000,
100000000100100000100000100000000000100000000000,
100000000100100000100000100000000000200000000000,
100000000100100000100000100000000000100000000000,
100000000000000000100000000000000000200000000000,
100000000100100000100000100000000000100000000000,
100000000100100000100000100000000000200000000000,
100000100100100000100000000000100000100000000000,
500000000000000000000000000000000000000000000000,
#MEASURE 6/4
000000000008000000000000000000000000000000000000000000000000000000000000,
#GOGOSTART
#MEASURE 4/4
100000000100100000100000100000200200200000000000,
100000000100100000100000100000000000200000000000,
100000000100100000100000100000200200200000000000,
100000000100100000100000000000100000100000100100,
100000000000300000300000000000000000000000000000,
400000000000000000000000000000000000000000000000,
#GOGOEND
000000000000000000000000000000000000000000000000,
100000000000000000100000000000000000000000000000,
000000000000000000000000000000000000000000000000,
100000000000000000100000000000000000000000000000,
100000100000100000000000100000200000000000000000,
100000100000100000000000100000200000000000000000,
100000100000100000000000100000200000000000000000,
100000100000100000000000100000200000000000000000,
100000100000200000100000000000100000200000000000,
100000000000100000000000100000200000000000000000,
100000100000200000100000000000100000200000000000,
100000000000100000000000100000200000000000000000,
100000000000200000000000100000100000200000000000,
100000000000200000000000100000100000200000000000,
100000000000200000000000100000100000200000000000,
100000000000200000000000100000100000200000000000,
100000200000100000200000000000100000200000000000,
100000000000100000000000100000200000000000000000,
100000200000100000200000000000100000200000000000,
100000000000100000000000200000100000000000000000,
100000000100100000100000100000000000100000000000,
100000000100100000100000100000000000200000000000,
100000000100100000100000100000000000100000000000,
100000200000100000100000000000000000200000000000,
100000000100100000100000100000000000100000000000,
100000000100100000100000100000000000200000000000,
100000100100100000200000000000100000100000000000,
200000000000100000200000000000100000100000000000,
#MEASURE 6/4
100000100000100000200000000000100000100000200000000000000000000000000000,
#GOGOSTART
#MEASURE 4/4
100000000100100000100000100000200200200000000000,
100000000100100000100000200000000000200000000000,
100000000100100000100000100000200200200000000000,
100000000100100000100000000000200000200000200200,
200000000000300000300000000000000000000000000000,
400000000000000000000000000000000000000000000000,
#GOGOEND
#END
COURSE:Normal
LEVEL:3
SCOREINIT:610
SCOREDIFF:190
#START
#BARLINEOFF
,
#BARLINEON
,
100000000000000000100000000000000000000000000000,
100000000000000000100000000000000000000000000000,
100000000000100000000000100000100000200000000000,
100000000000100000000000100000100000200000000000,
100000000000200000000000000000000000200000000000,
100000000000200000000000200000000000000000000000,
100000000000200000000000100000000000100000100000,
000000100000000000000000000000000000000000000000,
100000000000200000000000100000000000100000100000,
000000100000000000000000000000000000000000000000,
100000000000100000000000100000100000200000000000,
100000000000100000000000100000100000200000000000,
100000000000200000000000000000000000200000000000,
100000000000200000000000200000000000000000000000,
100000000000200000000000100000000000100000100000,
000000100000000000000000000000000000000000000000,
100000000000200000000000100000000000100000100000,
000000100000000000000000000000000000000000000000,
100000000000200000000000100000000000200000200000,
100000000000200000000000100000000000000000000000,
100000000000100000100000000000000000100000000000,
100000000000000000300000000000000000000000000000,
100000000000200000000000100000000000200000200000,
100000000000200000000000100000000000000000000000,
100000000000000000300000000000000000000000000000,
500000000000000000000000000000000000000000000000,
#MEASURE 6/4
000000000000000000000000000000000008000000000000000000000000000000000000,
#GOGOSTART
#MEASURE 4/4
100000000000200000000000100000000000100000100000,
000000100000000000100000100000000000000000000000,
100000000000200000000000100000000000100000200000,
100000000000000000000000500000000000000000000008,
000000000000300000000000000000000000000000000000,
400000000000000000000000000000000000000000000000,
#GOGOEND
000000000000000000000000000000000000000000000000,
100000000000000000100000000000000000000000000000,
000000000000000000000000000000000000000000000000,
100000000000000000100000000000000000000000000000,
100000000000200000000000100000100000200000000000,
100000000000200000000000100000100000200000000000,
100000000000200000000000000000000000200000000000,
100000000000200000000000200000000000000000000000,
100000000000200000000000100000000000100000100000,
000000100000000000000000000000000000000000000000,
100000000000200000000000100000000000100000100000,
000000100000000000000000000000000000000000000000,
100000000000200000000000100000100000200000000000,
100000000000200000000000100000100000200000000000,
100000000000200000000000000000000000200000000000,
100000000000200000000000200000000000000000000000,
100000000000200000000000100000000000100000100000,
000000100000000000000000000000000000000000000000,
100000000000200000000000100000000000100000100000,
000000100000000000000000300000300000000000000000,
100000000000200000000000100000000000200000200000,
100000000000200000000000100000000000000000000000,
100000000000200000000000100000000000200000200000,
100000000000000000300000000000000000000000000000,
100000000000200000000000100000000000200000200000,
100000000000200000000000100000000000000000000000,
100000000000000000300000000000000000000000000000,
100000000000000000300000000000000000000000000000,
#MEASURE 6/4
100000100000000000300000000000000000100000300000000000000000000000000000,
#GOGOSTART
#MEASURE 4/4
100000000000200000000000100000000000100000100000,
000000100000000000100000100000000000000000000000,
100000000000200000000000100000000000100000200000,
100000000000000000000000500000000000000000000008,
000000000000300000000000000000000000000000000000,
400000000000000000000000000000000000000000000000,
#GOGOEND
#END
COURSE:Easy
LEVEL:3
SCOREINIT:680
SCOREDIFF:160
#START
000000000000000000000000000000000000000000000000,
000000000000000000000000000000000000000000000000,
100000000000000000000000000000000000000000000000,
100000000000000000000000000000000000000000000000,
100000000000000000000000100000000000000000000000,
100000000000000000000000200000000000000000000000,
100000000000000000000000100000000000000000000000,
100000000000000000000000200000000000000000000000,
100000000000100000000000100000000000000000000000,
100000000000100000000000200000000000000000000000,
100000000000100000000000100000000000000000000000,
100000000000100000000000200000000000000000000000,
100000000000100000000000100000000000000000000000,
100000000000200000000000100000000000000000000000,
100000000000100000000000100000000000000000000000,
100000000000200000000000100000000000000000000000,
100000000000100000000000100000000000000000000000,
100000000000100000000000200000000000000000000000,
100000000000100000000000100000000000000000000000,
100000000000100000000000200000000000000000000000,
100000000000100000000000100000000000200000000000,
100000000000100000000000100000000000000000000000,
100000000000100000000000100000000000200000000000,
100000000000000000100000000000000000000000000000,
100000000000100000000000100000000000200000000000,
100000000000100000000000100000000000000000000000,
100000000000000000100000000000000000000000000000,
500000000000000000000000000000000000000000000000,
#MEASURE 6/4
000000000008000000000000000000000000000000000000000000000000000000000000,
#GOGOSTART
#MEASURE 4/4
100000000000100000000000100000000000200000000000,
100000000000100000000000100000000000200000000000,
100000000000100000000000100000000000200000000000,
100000000000000000000000000000000000000000000000,
000000000000300000000000000000000000000000000000,
400000000000000000000000000000000000000000000000,
#GOGOEND
000000000000000000000000000000000000000000000000,
100000000000000000000000000000000000000000000000,
000000000000000000000000000000000000000000000000,
100000000000000000000000000000000000000000000000,
100000000000000000000000200000000000000000000000,
100000000000000000000000200000000000000000000000,
100000000000000000000000200000000000000000000000,
100000000000000000000000200000000000000000000000,
100000000000100000000000200000000000000000000000,
100000000000100000000000100000000000000000000000,
100000000000100000000000200000000000000000000000,
100000000000100000000000100000000000000000000000,
100000000000200000000000200000000000000000000000,
100000000000200000000000100000000000000000000000,
100000000000200000000000200000000000000000000000,
100000000000200000000000100000000000000000000000,
100000000000100000000000100000000000000000000000,
100000000000100000000000200000000000000000000000,
100000000000100000000000100000000000000000000000,
100000000000100000000000200000000000000000000000,
100000000000100000000000100000000000200000000000,
100000000000100000000000100000000000000000000000,
100000000000100000000000100000000000200000000000,
100000000000000000100000000000000000000000000000,
100000000000100000000000100000000000200000000000,
100000000000100000000000100000000000000000000000,
100000000000000000100000000000000000000000000000,
500000000000000000000000000000000000000000000000,
#MEASURE 6/4
000000000008000000000000000000000000000000000000000000000000000000000000,
#GOGOSTART
#MEASURE 4/4
100000000000100000000000100000000000200000000000,
100000000000100000000000100000000000200000000000,
100000000000100000000000100000000000200000000000,
100000000000000000000000000000000000000000000000,
000000000000300000000000000000000000000000000000,
400000000000000000000000000000000000000000000000,
#GOGOEND
#END