Files
ESE/02 Anime/Giniro no Sora/Giniro no Sora.tja
T
2023-06-15 19:15:39 -05:00

356 lines
14 KiB
Plaintext

//TJADB Project
TITLE:Giniro no Sora
TITLEJA:銀色の空
SUBTITLE:--redballoon/Gintama
BPM:188
WAVE:Giniro no Sora.ogg
OFFSET:-1.638
DEMOSTART:6.744
COURSE:Oni
LEVEL:8
SCOREINIT:600
SCOREDIFF:150
#START
100000000000100000100000100000200000100000200000,
000000100000100000000000100000200000100000200000,
100000000000100000000100100000200000000000200000,
000000100000000000200200200000200000200000000000,
#GOGOSTART
100000100100200000100000100000100100200000100000,
100000100100200000100000100000100100200000000000,
300000000000000000000000300000000000300000300000,
000000100000200000200000100000000000100000000000,
100000100100200000100000100000100100200000100000,
100000100100200000100000100000100100200000100000,
100000100100100000200000200000200200100000200000,
000000100000100000100000000000200000100000100000,
100000100100200000100000100000100100200000100000,
100000100100200000100000100000100100200000100000,
100000000000300000000000300000000000300000300000,
000000100000200000200000100000100000200000000000,
100000100100200000100000000000100000100000200000,
000000100000200000100100100000100000100000100000,
100000000000200000000000100000100000100000200000,
000000100000200000000000100000100000200000000000,
100000100100200000000000100000100000100000200000,
000000100000200000000000100000100000200000200200,
100000100000200000100100100000100000100000200000,
000000000000000000000000200000000000400000000000,
#GOGOEND
100000000000200000000000200000100000100000200000,
000000100000200000000000100000100000200000000000,
100000000000200000000000200000100000100000200000,
000000100000200000000000100000100000200000000000,
100000000000100000200000000000200000100000200000,
000000100000200000000000100000100000200000000000,
100000000000200000100000000000100000200000100000,
000000100000200000200000100000200000200000100100,
100000000000100000200000000000100000200000100000,
000000100000200000000000100000100000200000200000,
100000000000100000200000000000100000200000100000,
000000100000200000000000100000100000200000200000,
100000100000200000100000100000100000200000100000,
100000100000200000100000100000100000200000100000,
100000100000200000200000100000000000200000200000,
000000100000200000000000200000100000100000100000,
200000000000100000200000000000200000100000200000,
000000100000200000000000100000100000200000000000,
100000000000100000200000000000200000100000200000,
000000100000200000000000100000100000200000000000,
100000000000100000200000100000000000200000000000,
100000000000100000200000100000100000200000200000,
100000100000200000200000100000000000200000200000,
000000100000200000100000100100100100100000000000,
#GOGOSTART
100000100100200000100000100000100100200000100000,
100000100100200000100000100000100100200000100000,
100100100100100000000000100100100100100000100000,
000000100000200000200000100000000000200000000000,
100000100100200000100000100000100100200000100000,
100000100100200000100000100000100100200000100000,
100000100100100000200000200000200200100000200000,
000000100000100000100000000000200000100000100000,
100000100100200000100000100000100100200000100000,
100000100100200000100000100000100100200000100000,
100100100100100000000000100100100100100000100000,
000000100000200000200000100000100000200000000000,
100000100100200000100000100000100100200000100000,
000000100000200000100100100000100000100000100000,
100000000000200000000000100000100000100000200000,
000000100000200000100000000000100000100000100000,
100000000000200000000000100000100000200000200000,
000000100000200000000000100000100000200000200200,
#GOGOEND
100000000000000000000000000000000000000000000000,
#END
COURSE:Hard
LEVEL:6
BALLOON:8,8
SCOREINIT:750
SCOREDIFF:180
#START
100000000000100000000000100000100000200000200000,
000000100000100000000000100000100000200000000000,
100000000000200000000000100000200000000000100000,
000000100000000000200200200000200000200000000000,
#GOGOSTART
100000000000200000000000100000100000200000100000,
000000100000200000000000100000100000200000000000,
300000000000000000000000300000000000300000300000,
000000000000000000000000000000000000000000000000,
100000000000200000000000100000100000200000100000,
000000100000200000000000100000100000200000000000,
100000000000100000000000200000200000200000200000,
000000100000100000100000000000200000000000000000,
100000000000200000000000100000100000200000100000,
000000100000200000000000100000100000200000000000,
100000000000300000000000300000000000300000300000,
000000000000000000000000000000000000000000000000,
100000000000200000000000100000100000200000100000,
000000200000000000100000000000100000100000000000,
900000000000000000000000000000000000000000000000,
000000000000000000000000000000800000000000000000,
100000000000200000000000100000000000100000200000,
000000100000200000000000100000100000200000000000,
100000000000200000000000100000100000100000200000,
000000000000000000000000200000000000400000000000,
#GOGOEND
100000000000200000000000100000100000100000100000,
000000100000100000000000200000200000200000000000,
100000000000200000000000100000100000100000200000,
000000100000100000000000200000200000200000000000,
100000000000200000000000100000100000100000100000,
000000100000200000000000100000100000200000000000,
100000000000200000200000000000200000200000100000,
000000100000100000100000000000100000200000000000,
100000000000100000100000000000100000000000200000,
000000100000100000000000200000200000200000200000,
100000000000200000200000000000100000000000200000,
000000100000100000000000200000200000200000200000,
100000000000200000100000000000100000200000000000,
100000000000200000100000000000100000200000000000,
100000100000100000100000100000000000200000200000,
000000200000200000000000100000100000100000100000,
200000000000100000100000000000200000200000200000,
000000100000100000000000200000200000200000000000,
100000000000200000200000000000100000100000100000,
000000200000200000000000100000100000100000000000,
100000000000100000200000000000100000200000000000,
000000100000100000000000100000100000200000000000,
100000000000200000000000100000100000200000500000,
000000000000000000000000000000800000000000000000,
#GOGOSTART
100000000000200000000000100000100000200000100000,
000000100000200000000000100000100000200000000000,
300000000000000000000000300000000000300000300000,
000000000000000000000000000000000000000000000000,
100000000000200000000000100000100000200000100000,
000000100000200000000000100000100000200000000000,
100000000000200000000000200000200000200000200000,
000000100000100000100000000000200000000000000000,
100000000000200000000000100000100000200000100000,
000000100000200000000000100000100000200000000000,
100000000000300000000000300000000000300000300000,
000000000000000000000000000000000000000000000000,
100000000000200000000000100000100000200000100000,
000000200000000000100000000000100000100000000000,
900000000000000000000000000000000000000000000000,
000000000000000000000000000000800000000000000000,
100000000000200000000000100000000000100000200000,
000000100000200000000000100000100000200000000000,
#GOGOEND
300000000000000000000000000000000000000000000000,
#END
COURSE:Normal
LEVEL:4
BALLOON:6,9,6
SCOREINIT:1300
SCOREDIFF:440
#START
000000000000000000000000000000000000000000000000,
000000000000000000000000000000000000000000000000,
100000000000000000000000200000000000000000000000,
500000000000000000000000800000000000000000000000,
#GOGOSTART
100000000000100000000000100000000000000000000000,
100000000000100000000000100000000000000000000000,
100000000000000000000000200000000000000000000000,
300000000000000000000000000000000000000000000000,
100000000000100000000000100000000000000000000000,
100000000000100000000000100000000000000000000000,
100000000000000000000000000000000000000000000000,
000000000000000000000000000000000000000000000000,
100000000000100000000000100000000000000000000000,
100000000000100000000000100000000000000000000000,
100000000000000000000000200000000000000000000000,
300000000000000000000000000000000000000000000000,
100000000000000000000000100000000000000000000000,
100000000000000000000000100000000000100000000000,
900000000000000000000000000000000000000000800000,
000000000000000000000000000000000000000000000000,
100000000000000000000000000000000000000000000000,
100000000000000000000000000000000000000000000000,
100000000000000000000000000000000000000000300000,
000000000000000000000000000000000000000000000000,
#GOGOEND
100000000000000000000000100000000000000000000000,
100000000000100000000000100000000000000000000000,
100000000000000000000000100000000000000000000000,
100000000000100000000000100000000000000000000000,
100000000000000000000000100000000000000000000000,
100000000000000000000000000000000000000000000000,
100000000000100000000000100000000000100000000000,
100000000000000000000000000000000000000000000000,
100000000000100000000000000000000000000000000000,
100000000000100000000000000000000000000000000000,
100000000000100000000000000000000000100000000000,
100000000000000000000000000000000000000000000000,
100000000000100000000000000000000000100000000000,
100000000000100000000000000000000000100000000000,
700000000000000000000000000000000000000000000000,
000000000000000000000000000000800000000000000000,
100000000000000000000000100000000000000000000000,
200000000000200000000000200000000000000000000000,
100000000000000000000000100000000000000000000000,
200000000000200000000000200000000000000000000000,
100000000000000000000000000000000000300000000000,
000000000000200000000000200000000000000000000000,
500000000000000000000000000000000000000000000000,
000000000000000000000000800000000000000000000000,
#GOGOSTART
100000000000100000000000100000000000000000000000,
100000000000100000000000100000000000000000000000,
100000000000000000000000200000000000000000000000,
300000000000000000000000000000000000000000000000,
100000000000100000000000100000000000000000000000,
100000000000100000000000100000000000000000000000,
100000000000000000000000000000000000000000000000,
000000000000000000000000000000000000000000000000,
100000000000100000000000100000000000000000000000,
100000000000100000000000100000000000000000000000,
100000000000000000000000200000000000000000000000,
300000000000000000000000000000000000000000000000,
100000000000000000000000100000000000000000000000,
100000000000000000000000100000000000100000000000,
900000000000000000000000000000000000000000800000,
000000000000000000000000000000000000000000000000,
100000000000000000000000100000000000000000000000,
100000000000000000000000100000000000100000000000,
#GOGOEND
300000000000000000000000000000000000000000000000,
#END
COURSE:Easy
LEVEL:3
BALLOON:8,8
SCOREINIT:970
SCOREDIFF:380
#START
000000000000000000000000000000000000000000000000,
000000000000000000000000000000000000000000000000,
100000000000000000000000100000000000000000000000,
500000000000000000000000800000000000000000000000,
#GOGOSTART
100000000000000000000000100000000000000000000000,
100000000000000000000000100000000000000000000000,
100000000000000000000000200000000000000000000000,
300000000000000000000000000000000000000000000000,
100000000000000000000000100000000000000000000000,
100000000000000000000000100000000000100000000000,
100000000000000000000000000000000000000000000000,
000000000000000000000000000000000000000000000000,
100000000000000000000000100000000000000000000000,
100000000000000000000000100000000000000000000000,
100000000000000000000000200000000000000000000000,
300000000000000000000000000000000000000000000000,
100000000000000000000000100000000000000000000000,
100000000000000000000000100000000000000000000000,
900000000000000000000000000000000000000000000000,
000000000000000000000000000000000000000000800000,
000000000000000000000000000000000000000000000000,
000000000000000000000000000000000000000000000000,
100000000000000000000000000000000000000000300000,
000000000000000000000000000000000000000000000000,
#GOGOEND
100000000000000000000000100000000000000000000000,
100000000000100000000000100000000000000000000000,
100000000000000000000000100000000000000000000000,
100000000000100000000000100000000000000000000000,
100000000000000000000000100000000000000000000000,
100000000000000000000000100000000000000000000000,
100000000000100000000000100000000000100000000000,
100000000000000000000000000000000000000000000000,
100000000000100000000000000000000000000000000000,
100000000000100000000000000000000000000000000000,
100000000000100000000000000000000000000000000000,
000000000000000000000000000000000000000000000000,
100000000000100000000000000000000000000000000000,
100000000000100000000000000000000000000000000000,
500000000000000000000000000000000000000000000000,
000000000000000000000000800000000000000000000000,
100000000000000000000000100000000000000000000000,
100000000000100000000000100000000000000000000000,
100000000000000000000000100000000000000000000000,
100000000000100000000000100000000000000000000000,
100000000000000000000000000000000000300000000000,
000000000000000000000000000000000000000000000000,
100000000000100000000000100000000000100000000000,
500000000000000000000000800000000000000000000000,
#GOGOSTART
100000000000000000000000100000000000000000000000,
100000000000000000000000100000000000000000000000,
100000000000000000000000200000000000000000000000,
300000000000000000000000000000000000000000000000,
100000000000000000000000100000000000000000000000,
100000000000000000000000100000000000100000000000,
100000000000000000000000000000000000000000000000,
000000000000000000000000000000000000000000000000,
100000000000000000000000100000000000000000000000,
100000000000000000000000100000000000000000000000,
100000000000000000000000200000000000000000000000,
300000000000000000000000000000000000000000000000,
100000000000000000000000100000000000000000000000,
100000000000000000000000100000000000000000000000,
900000000000000000000000000000000000000000000000,
000000000000000000000000000000000000000000800000,
000000000000000000000000000000000000000000000000,
000000000000000000000000000000000000000000000000,
#GOGOEND
300000000000000000000000000000000000000000000000,
#END