Files
ESE/02 Anime/Haruka Kanata/Haruka Kanata.tja
T
2023-06-15 19:15:39 -05:00

464 lines
18 KiB
Plaintext

//TJADB Project
TITLE:Haruka Kanata
TITLEJA:遙か彼方
SUBTITLE:--ASIAN KUNG-FU GENERATION/NARUTO
SUBTITLEJA:NARUTO
BPM:175
WAVE:Haruka Kanata.ogg
OFFSET:-1.674
DEMOSTART:54.645
COURSE:Oni
LEVEL:8
STYLE:Double
SCOREINIT:900
SCOREDIFF:210
#START P1
000000000000000000000000000000000000000000000000,
000000000000000000000000000000000000000000000000,
000000000000000000000000000000000000000000100000,
100000000000200000100000100000000000200000100000,
100000000000100000100000000000200000200000100000,
100000000000200000100000100000000000200000100000,
100000000000100000000000100000000000100000000000,
300000000000000000000000000000000000100000000000,
100000000000100000000000100000000000100000000000,
100000200000000000200000000000200000000000200000,
000000200000000000200000200200200200200000000000,
100000000000200000100000100000000000200000100000,
100000000000100000100000000000200000200000100000,
100000000000200000100000100000000000200000100000,
100000000000100000000000100000000000100000000000,
300000000000000000000000000000000000100000000000,
100000000000100000000000100000000000100000000000,
100000200000000000200000000000200000000000200000,
000000200000000000200000100000000100100000200200,
100000100000100000000100100000100000100000000000,
100000100000100000000100100000100000100000000000,
100000100000200000000100100000100000200000000000,
100000100000200000000100100000100000200000000000,
100000000100100000100000100000000100100000100000,
100000000100100000100000100000000100100000100000,
500000000000000000000000000000000000000000000008,
000000000000000000000000000000000000000000000000,
100000100000200000000100100000100000200000000000,
100000100000200000000100100000100000200000000000,
100000000100200000200000100000000100200000200000,
100000000100200000200000100000200000100000200000,
300000000000000000300000000000000000300000000000,
000000300000000000000000300000000000300000000000,
100100100100000000200200200200000000100100100100,
000000200200200200000000300000000000300000000000,
30001101,
22021101,
22021101,
22021112,
100000000000500000000000000000000000000000000000,
000000000000000008000000000000100000100000200000,
100000000000500000000000000000000000000000000000,
000000000008000000000000000000000000100000100100,
100000100000200000200000100000100000100100100000,
100000100000200000200000000000100000000000100000,
100100000100100000100100000100100000100100000100,
100000100100000100100000100000100000100000200000,
100000000000500000000000000000000000000000000000,
000000000000000008000000000000100000100000200000,
100000000000500000000000000000000000000000000000,
000000000008000000000000000000100000100100200000,
100000100000200000200000100000100000100100200000,
100000100000200000200000000000100000100000200000,
100000002000100020000000100000002000100020000000,
100000002000100020000000100000002000100020000000,
#BPMCHANGE 152
300000000000000000000000200000000000000000000000,
100000000000000000000000200000000000000000000000,
100000000000000000000000200000000000000000000000,
100000000000000000000000200020002000200020002000,
100000001000000010000000100000001000000010000000,
200000002000000020000000200000002000000020000000,
300000000000000000000000000000000000000000000000,
#END
#START P2
000000000000000000000000000000000000000000000000,
000000000000000000000000000000000000000000000000,
000000000000000000000000000000000000000000100000,
100000000000200000100000100000000000200000100000,
100000000000100000100000000000200000200000100000,
100000000000200000100000100000000000200000100000,
100000000000100000000000100000000000100000000000,
300000000000000000000000000000000000100000000000,
100000000000100000000000100000000000100000000000,
100000200000000000200000000000200000000000200000,
000000200000000000200000200200200200200000000000,
100000000000200000100000100000000000200000100000,
100000000000100000100000000000200000200000100000,
100000000000200000100000100000000000200000100000,
100000000000100000000000100000000000100000000000,
300000000000000000000000000000000000100000000000,
100000000000100000000000100000000000100000000000,
100000200000000000200000000000200000000000200000,
000000200000000000200000100000000100100000200200,
100000100000100000000100100000100000100000000000,
100000100000100000000100100000100000100000000000,
100000100000200000000100100000100000200000000000,
100000100000200000000100100000100000200000000000,
100000000100100000100000100000000100100000100000,
100000000100100000100000100000000100100000100000,
500000000000000000000000000000000000000000000008,
000000000000000000000000000000000000000000000000,
100000100000200000000100100000100000200000000000,
100000100000200000000100100000100000200000000000,
100000000100200000200000100000000100200000200000,
100000000100200000200000100000200000100000200000,
300000000000000000300000000000000000300000000000,
000000300000000000000000300000000000300000000000,
100100100100000000200200200200000000100100100100,
000000200200200200000000300000000000300000000000,
30002202,
11012202,
11012202,
11011112,
100000000000500000000000000000000000000000000000,
000000000000000008000000000000100000100000200000,
100000000000500000000000000000000000000000000000,
000000000008000000000000000000000000100000100100,
100000100000200000200000100000100000100100100000,
100000100000200000200000000000100000000000100000,
100100000100100000100100000100100000100100000100,
100000100100000100100000100000100000100000200000,
100000000000500000000000000000000000000000000000,
000000000000000008000000000000100000100000200000,
100000000000500000000000000000000000000000000000,
000000000008000000000000000000100000100100200000,
100000100000200000200000100000100000100100200000,
100000100000200000200000000000100000100000200000,
100000002000100020000000100000002000100020000000,
100000002000100020000000100000002000100020000000,
#BPMCHANGE 152
300000000000000000000000200000000000000000000000,
100000000000000000000000200000000000000000000000,
100000000000000000000000200000000000000000000000,
100000000000000000000000200020002000200020002000,
100000001000000010000000100000001000000010000000,
200000002000000020000000200000002000000020000000,
300000000000000000000000000000000000000000000000,
#END
COURSE:Hard
LEVEL:5
SCOREINIT:980
SCOREDIFF:250
#START
000000000000000000000000000000000000000000000000,
000000000000000000000000000000000000000000000000,
000000000000000000000000000000000000000000100000,
100000000000000000100000100000000000000000100000,
100000000000100000100000000000200000200000100000,
100000000000000000100000100000000000000000100000,
100000000000100000000000100000000000100000000000,
300000000000000000000000000000000000100000000000,
100000000000100000000000100000000000100000000000,
100000200000000000200000000000200000000000200000,
000000200000000000200000200000200000200000000000,
100000000000000000100000100000000000000000100000,
100000000000100000100000000000200000200000100000,
100000000000000000100000100000000000000000100000,
100000000000100000000000100000000000100000000000,
300000000000000000000000000000000000100000000000,
100000000000100000000000100000000000100000000000,
100000200000000000200000000000200000000000200000,
000000200000000000200000100000000000100000100000,
200000000000200000000000200000000000100000100000,
100000000000100000000000100000000000100000000000,
200000000000200000000000200000000000100000100000,
100000000000100000000000100000000000100000000000,
200000000000200000000000200000000000100000000000,
100000000000100000000000100000000000100000000000,
500000000000000000000000000000000000000000000800,
000000000000000000000000000000000000000000000000,
200000000000200000000000200000000000100000100000,
100000000000100000000000100000000000100000000000,
200000000000200000000000200000000000100000100000,
100000000000100000000000100000000000100000000000,
300000000000000000300000000000000000300000000000,
000000300000000000000000300000000000300000000000,
100100100000000000100100100000000000100100100000,
000000100100100000000000300000000000300000000000,
300000000000000000000000200000000000000000000000,
200000000000000000000000200000000000000000000000,
200000000000000000000000200000000000000000000000,
200000000000000000000000200000100000100000200000,
100000000000500000000000000000000000000000000000,
000000000800000000000000000000100000100000200000,
100000000000500000000000000000000000000000000000,
000000000800000000000000000000000000100000100000,
100000100000200000200000000000100000100000100000,
100000000000200000200000000000100000000000000000,
100100100000000000100100100000000000100100100000,
000000100100100000100100100000100000100000200000,
100000000000500000000000000000000000000000000000,
000000000800000000000000000000100000100000200000,
100000000000500000000000000000000000000000000000,
000000000800000000000000000000100000100000200000,
100000000000200000200000000000100000100000200000,
100000000000200000200000000000100000100000200000,
100000002000000020000000100000002000000020000000,
100000002000000020000000100000002000000020000000,
#BPMCHANGE 152
300000000000000000000000200000000000000000000000,
100000000000000000000000200000000000000000000000,
100000000000000000000000200000000000000000000000,
100000000000000000000000200020002000200020002000,
100000001000000010000000100000001000000010000000,
200000002000000020000000200000002000000020000000,
300000000000000000000000000000000000000000000000,
#END
COURSE:Normal
LEVEL:5
STYLE:Double
SCOREINIT:1350
SCOREDIFF:420
#START P1
000000000000000000000000000000000000000000000000,
000000000000000000000000000000000000000000000000,
000000000000000000000000000000000000000000100000,
100000000000000000100000100000000000000000100000,
100000000000100000100000000000000000000000100000,
100000000000000000100000100000000000000000100000,
100000000000100000000000100000000000100000000000,
300000000000000000000000000000000000100000000000,
100000000000100000000000100000000000100000000000,
500000000000000000000000000000000000000000000000,
000000000008000000000000000000000000000000100000,
100000000000000000100000100000000000000000100000,
100000000000100000100000000000000000000000100000,
100000000000000000100000100000000000000000100000,
100000000000100000000000100000000000100000000000,
300000000000000000000000000000000000100000000000,
100000000000100000000000100000000000100000000000,
500000000000000000000000000000000000000000000000,
000000000008000000000000000000000000000000000000,
00000011,
1111,
00000011,
1111,
000000000000000000000000000000000000100000000000,
100000000000100000000000100000000000100000000000,
500000000000000000000000000000000000000000000008,
000000000000000000000000000000000000000000000000,
2220,
,
2220,
,
100000000000000000100000000000000000100000000000,
000000100000000000000000100000000000100000000000,
300000000000000000300000000000000000300000000000,
000000300000000000000000300000000000300000000000,
300000000000000000000000200000000000000000000000,
200000000000000000000000200000000000000000000000,
200000000000000000000000200000000000000000000000,
200000000000000000000000000000100000100000000000,
100000000000500000000000000000000000000000000000,
000000000008000000000000000000100000100000000000,
100000000000500000000000000000000000000000000000,
000000000008000000000000000000000000100000000000,
100000000000200000200000000000100000100000000000,
100000000000200000200000000000100000000000100000,
100000000000000000100000000000000000100000100000,
000000000000000000000000000000100000100000000000,
100000000000500000000000000000000000000000000000,
000000000008000000000000000000100000100000000000,
100000000000500000000000000000000000000000000000,
000000000008000000000000000000000000100000000000,
100000000000200000200000000000100000100000000000,
100000000000200000200000000000100000100000000000,
300000000000000000000000300000000000000000000000,
300000000000000000000000300000000000000000000000,
#BPMCHANGE 152
300000000000000000000000000000000000000000000000,
100000000000000000000000000000000000000000000000,
100000000000000000000000000000000000000000000000,
100000000000000000000000200000000000000000000000,
100000001000000010000000100000001000000010000000,
200000002000000020000000200000002000000020000000,
300000000000000000000000000000000000000000000000,
#END
#START P2
000000000000000000000000000000000000000000000000,
000000000000000000000000000000000000000000000000,
000000000000000000000000000000000000000000100000,
100000000000000000100000100000000000000000100000,
100000000000100000100000000000000000000000100000,
100000000000000000100000100000000000000000100000,
100000000000100000000000100000000000100000000000,
300000000000000000000000000000000000100000000000,
100000000000100000000000100000000000100000000000,
500000000000000000000000000000000000000000000000,
000000000008000000000000000000000000000000100000,
100000000000000000100000100000000000000000100000,
100000000000100000100000000000000000000000100000,
100000000000000000100000100000000000000000100000,
100000000000100000000000100000000000100000000000,
300000000000000000000000000000000000100000000000,
100000000000100000000000100000000000100000000000,
500000000000000000000000000000000000000000000000,
000000000008000000000000000000000000000000000000,
2220,
,
2220,
,
000000000000000000000000000000000000100000000000,
100000000000100000000000100000000000100000000000,
500000000000000000000000000000000000000000000008,
000000000000000000000000000000000000000000000000,
00000011,
1111,
00000011,
1111,
100000000000000000100000000000000000100000000000,
000000100000000000000000100000000000100000000000,
300000000000000000300000000000000000300000000000,
000000300000000000000000300000000000300000000000,
300000000000000000000000200000000000000000000000,
200000000000000000000000200000000000000000000000,
200000000000000000000000200000000000000000000000,
200000000000000000000000000000100000100000000000,
100000000000500000000000000000000000000000000000,
000000000008000000000000000000100000100000000000,
100000000000500000000000000000000000000000000000,
000000000008000000000000000000000000100000000000,
100000000000200000200000000000100000100000000000,
100000000000200000200000000000100000000000100000,
100000000000000000100000000000000000100000100000,
000000000000000000000000000000100000100000000000,
100000000000500000000000000000000000000000000000,
000000000008000000000000000000100000100000000000,
100000000000500000000000000000000000000000000000,
000000000008000000000000000000000000100000000000,
100000000000200000200000000000100000100000000000,
100000000000200000200000000000100000100000000000,
300000000000000000000000300000000000000000000000,
300000000000000000000000300000000000000000000000,
#BPMCHANGE 152
300000000000000000000000000000000000000000000000,
100000000000000000000000000000000000000000000000,
100000000000000000000000000000000000000000000000,
100000000000000000000000200000000000000000000000,
100000001000000010000000100000001000000010000000,
200000002000000020000000200000002000000020000000,
300000000000000000000000000000000000000000000000,
#END
COURSE:Easy
LEVEL:3
SCOREINIT:1350
SCOREDIFF:380
#START
000000000000000000000000000000000000000000000000,
000000000000000000000000000000000000000000000000,
000000000000000000000000000000000000000000000000,
100000000000000000000000100000000000000000000000,
100000000000100000000000000000000000000000000000,
100000000000000000000000100000000000000000000000,
100000000000100000000000100000000000000000000000,
300000000000000000000000000000000000100000000000,
100000000000100000000000100000000000100000000000,
500000000000000000000000000000000000000000000000,
800000000000000000000000000000000000000000000000,
100000000000000000000000100000000000000000000000,
100000000000100000000000000000000000000000000000,
100000000000000000000000100000000000000000000000,
100000000000100000000000100000000000000000000000,
300000000000000000000000000000000000100000000000,
100000000000100000000000100000000000100000000000,
500000000000000000000000000000000000800000000000,
000000000000000000000000000000000000000000000000,
000000000000000000000000000000000000100000000000,
100000000000100000000000100000000000100000000000,
000000000000000000000000000000000000200000000000,
200000000000200000000000200000000000200000000000,
000000000000000000000000000000000000100000000000,
100000000000100000000000100000000000100000000000,
500000000000000000000000000000000000800000000000,
000000000000000000000000000000000000000000000000,
000000000000000000000000000000000000200000000000,
200000000000200000000000200000000000200000000000,
000000000000000000000000000000000000100000000000,
100000000000100000000000100000000000100000000000,
100000000000000000000000000000000000100000000000,
000000000000000000000000100000000000100000000000,
300000000000000000000000000000000000300000000000,
000000000000000000000000300000000000000000000000,
300000000000000000000000000000000000000000000000,
100000000000000000000000000000000000000000000000,
100000000000000000000000000000000000000000000000,
100000000000000000000000000000000000100000000000,
100000000000500000000000000000000000000000000000,
800000000000000000000000000000000000100000000000,
100000000000500000000000000000000000000000000000,
800000000000000000000000000000000000100000000000,
100000000000000000000000000000000000100000000000,
100000000000000000000000000000100000000000000000,
300000000000000000300000000000000000300000000000,
000000000000000000000000000000000000100000000000,
100000000000500000000000000000000000000000000000,
800000000000000000000000000000000000100000000000,
100000000000500000000000000000000000000000000000,
800000000000000000000000000000000000100000000000,
100000000000100000000000000000000000100000000000,
100000000000100000000000000000000000100000000000,
300000000000000000000000300000000000000000000000,
300000000000000000000000300000000000000000000000,
#BPMCHANGE 152
300000000000000000000000000000000000000000000000,
100000000000000000000000000000000000000000000000,
100000000000000000000000000000000000000000000000,
100000000000000000000000000000000000000000000000,
300000000000000000000000000000000000000000000000,
300000000000000000000000000000000000000000000000,
300000000000000000000000000000000000000000000000,
#END