406 lines
11 KiB
Plaintext
406 lines
11 KiB
Plaintext
//TJADB Project
|
|
TITLE:Here I Am
|
|
TITLEJA:Here I Am
|
|
SUBTITLE:--globe/Black Jack
|
|
SUBTITLEJA:「ブラック・ジャック」より
|
|
BPM:131.51
|
|
WAVE:Here I Am.ogg
|
|
OFFSET:-1.990
|
|
DEMOSTART:59.262
|
|
|
|
COURSE:Oni
|
|
LEVEL:6
|
|
BALLOON:22
|
|
SCOREINIT:810
|
|
SCOREDIFF:170
|
|
|
|
|
|
#START
|
|
|
|
|
|
300000000000000000100000100000200000100000200000,
|
|
#BPMCHANGE 134.66
|
|
000000000000000000100000100000200000100000200000,
|
|
#BPMCHANGE 134.38
|
|
100000000000200000000000100000000000200000200000,
|
|
500000000000000000000008000000000000000000000000,
|
|
100000000000200000200000100000200000100000200000,
|
|
100000100000000000100000200000200000000000200000,
|
|
100000000000200000000000100000200000000000200000,
|
|
#BPMCHANGE 134
|
|
500000000000000000000008000000000000000000000000,
|
|
100000000000000000200000100000200000000000200000,
|
|
100000100000000000100000200000200000000000200000,
|
|
100000100000000000200000100000200000100000200000,
|
|
000000000000200000000000200000000000200000200000,
|
|
#BPMCHANGE 131.4
|
|
100000000000200000000000100000000000200000000000,
|
|
#BPMCHANGE 136.71
|
|
100000000000200000200000000000000000000000100000,
|
|
#BPMCHANGE 134
|
|
100000200000000000100000100000000000100000100000,
|
|
000000000000000000000000000000000000000000000000,
|
|
100000000200200000100000100000100000200000000000,
|
|
100000200200200000100000100000200000200000000000,
|
|
100000000200200000100000100000100000200000000000,
|
|
100000200200200000100000100000000000200000000000,
|
|
100000000200200000100000100000100000200000000000,
|
|
100000200200200000100000100000200000200000000000,
|
|
100000000200200000100000100000100000200000000000,
|
|
100000100000100000100000300000300000300000300000,
|
|
300000000200200000100000100100100000200000000000,
|
|
100100100000200000100000100100100000200000000000,
|
|
100000000200200000100000100100100000200000000000,
|
|
100100100000200000100000100100100000200000000000,
|
|
100100200000200000100000100100200200200000100000,
|
|
100100200000200000100000100100200200200000200000,
|
|
100000100100100000100100100000100100100000100100,
|
|
100100100100100100100100200000000000200000200000,
|
|
|
|
#GOGOSTART
|
|
#SCROLL 1.15
|
|
100000000200200000100000100100100000200000000000,
|
|
100000000200200000100000100100200000200000000000,
|
|
100000200200200000100000100000200000200000000000,
|
|
100000000200200000100000100100100000200000200000,
|
|
100000000200200000100000100100100000200000000000,
|
|
100000000200200000100000100100200000200000000000,
|
|
100000200200200000100000100000200000200000000000,
|
|
100000000200200000200000100100200000200000100000,
|
|
100000000200200000100000100100100000200000000000,
|
|
100000000200200000100000100100200000200000000000,
|
|
100000200200200000100000100000200000200000000000,
|
|
100000000200200000100000100100100000100000200000,
|
|
100000100100200000000000200200100000100000200000,
|
|
100000100100200000000000200200100000100000200000,
|
|
100000200200200000100000100100100000200000100000,
|
|
100000200200200000100000200200200000100000200000,
|
|
100000000200200000100000100100100000100000200000,
|
|
100000000200200000100000200200200000100000100000,
|
|
7,
|
|
08,
|
|
|
|
#GOGOEND
|
|
|
|
|
|
#END
|
|
|
|
|
|
COURSE:Hard
|
|
LEVEL:5
|
|
BALLOON:15,15,15
|
|
SCOREINIT:750
|
|
SCOREDIFF:160
|
|
|
|
|
|
#START
|
|
|
|
|
|
30011212,
|
|
#BPMCHANGE 134.66
|
|
00011212,
|
|
#BPMCHANGE 134.38
|
|
10201022,
|
|
500000000000000000000008000000000000000000000000,
|
|
10221212,
|
|
11012202,
|
|
10201202,
|
|
#BPMCHANGE 134
|
|
500000000000000000000008000000000000000000000000,
|
|
10021202,
|
|
11012202,
|
|
11021212,
|
|
00202022,
|
|
#BPMCHANGE 131.4
|
|
1212,
|
|
#BPMCHANGE 136.71
|
|
10220001,
|
|
#BPMCHANGE 134
|
|
12011011,
|
|
,
|
|
|
|
#SECTION
|
|
#BRANCHSTART p,75,90
|
|
#N
|
|
10211020,
|
|
10210220,
|
|
10211020,
|
|
11211020,
|
|
10211020,
|
|
10210220,
|
|
10211020,
|
|
11113333,
|
|
30211120,
|
|
10211220,
|
|
10211120,
|
|
10211220,
|
|
1000201011102000,
|
|
1000201011102000,
|
|
12202022,
|
|
33304022,
|
|
|
|
#E
|
|
10211120,
|
|
10211220,
|
|
10211120,
|
|
1010201110002000,
|
|
10211120,
|
|
10211220,
|
|
10211122,
|
|
11113333,
|
|
3002201010102000,
|
|
1002201010202000,
|
|
1002201010102000,
|
|
1002201010202000,
|
|
1002201011102000,
|
|
1002201011102000,
|
|
12202022,
|
|
33304022,
|
|
|
|
#M
|
|
1000201011102000,
|
|
10211220,
|
|
1000201011102000,
|
|
1010201110002000,
|
|
1000201011102000,
|
|
10211220,
|
|
1000201011102020,
|
|
11113333,
|
|
3002201011102000,
|
|
1002201010202000,
|
|
1002201011102000,
|
|
1002201010202000,
|
|
1002201011102000,
|
|
1002201011102000,
|
|
12202022,
|
|
33304022,
|
|
|
|
#GOGOSTART
|
|
#SCROLL 1.5
|
|
#SECTION
|
|
#BRANCHSTART p,75,90
|
|
#N
|
|
1002001010002000,
|
|
1002001010002000,
|
|
1022201010002000,
|
|
1002001010102000,
|
|
1002001010002000,
|
|
1002001010002000,
|
|
1022201010002000,
|
|
2002202010202000,
|
|
1002001010002000,
|
|
1002001010002000,
|
|
1022201010002000,
|
|
10001212,
|
|
1002200010201020,
|
|
1002200010102000,
|
|
1002201010002000,
|
|
3000000022201000,
|
|
1002001000202000,
|
|
1002001010002000,
|
|
9,
|
|
08,
|
|
|
|
#E
|
|
1002001010002000,
|
|
1002001010002000,
|
|
1022201010102000,
|
|
1002001010102020,
|
|
1002001010002000,
|
|
1002001010002000,
|
|
1022201010102000,
|
|
2002202010202010,
|
|
1002001010002000,
|
|
1002001010002000,
|
|
1022201010102000,
|
|
10001212,
|
|
1001200010201020,
|
|
1001200010102000,
|
|
1002201010202000,
|
|
3000000022201000,
|
|
1002001000202000,
|
|
1002001010202000,
|
|
9,
|
|
08,
|
|
|
|
#M
|
|
1002201010002000,
|
|
1002201010002000,
|
|
1022201010112000,
|
|
1002201010102020,
|
|
1002201010002000,
|
|
1002201010002000,
|
|
1022201010112000,
|
|
2002202010202010,
|
|
1002201010002000,
|
|
1002201010002000,
|
|
1022201010112000,
|
|
10001212,
|
|
1001200010201020,
|
|
1001200010102000,
|
|
1002201010202000,
|
|
3000000022202020,
|
|
1002001002202000,
|
|
1002001012202000,
|
|
9,
|
|
08,
|
|
|
|
#BRANCHEND
|
|
#GOGOEND
|
|
|
|
|
|
#END
|
|
|
|
|
|
COURSE:Normal
|
|
LEVEL:3
|
|
BALLOON:10,15
|
|
SCOREINIT:1100
|
|
SCOREDIFF:400
|
|
|
|
|
|
#START
|
|
|
|
|
|
100000000000000000000000200000000000000000000000,
|
|
#BPMCHANGE 134.66
|
|
100000000000000000000000200000000000000000000000,
|
|
#BPMCHANGE 134.38
|
|
100000000000000000000000100000000000000000000000,
|
|
500000000000000000800000000000000000000000000000,
|
|
100000000000000000000000200000000000000000000000,
|
|
100000000000000000000000200000000000000000000000,
|
|
100000000000000000000000100000000000000000000000,
|
|
#BPMCHANGE 134
|
|
500000000000000000800000000000000000000000000000,
|
|
100000000000000000000000200000000000000000000000,
|
|
100000000000000000000000200000000000000000000000,
|
|
100000000000000000000000200000000000200000000000,
|
|
100000000000000000000000200000000000000000000000,
|
|
#BPMCHANGE 131.4
|
|
100000000000000000000000000000000000000000000000,
|
|
#BPMCHANGE 136.71
|
|
100000000000000000000000200000000000000000000000,
|
|
#BPMCHANGE 134
|
|
100000000000000000100000100000000000100000100000,
|
|
000000000000000000000000000000000000000000000000,
|
|
100000000000000000100000100000000000200000000000,
|
|
100000000000000000100000100000000000000000000000,
|
|
300000300000000000000000000000000000200000000000,
|
|
000000000000200000000000000000000000200000000000,
|
|
100000000000000000100000100000000000200000000000,
|
|
100000000000000000100000100000000000000000000000,
|
|
300000000000300000000000000000000000300000000000,
|
|
300000000000000000000000000000000000000000000000,
|
|
100000000000200000000000100000000000000000000000,
|
|
100000000000200000000000100000000000000000000000,
|
|
300000000000300000000000000000000000200000000000,
|
|
000000000000200000000000000000000000200000000000,
|
|
100000000000200000100000100000000000000000000000,
|
|
100000000000200000100000100000000000000000000000,
|
|
300000000000300000000000300000000000300000000000,
|
|
700000000000000000000000000000800000000000000000,
|
|
#GOGOSTART
|
|
100000000000000000100000100000000000100000000000,
|
|
100000000000000000100000100000000000200000000000,
|
|
100000000000100000000000100000000000000000000000,
|
|
300000000000000000000000200000000000200000000000,
|
|
100000000000000000100000100000000000100000000000,
|
|
100000000000000000100000100000000000200000000000,
|
|
100000000000100000000000100000000000000000000000,
|
|
500000000000000000800000000000000000000000000000,
|
|
100000000000000000100000100000000000100000000000,
|
|
100000000000000000100000100000000000200000000000,
|
|
100000000000100000000000100000000000000000000000,
|
|
300000000000000000000000200000000000200000000000,
|
|
100000000000000000000000200000000000200000000000,
|
|
100000000000000000100000100000000000100000000000,
|
|
500000000000000000000000000000000000800000000000,
|
|
000000000000000000000000000000000000300000000000,
|
|
300000000000000000000000000000000000400000000000,
|
|
300000000000000000000000300000000000400000000000,
|
|
9,
|
|
08,
|
|
|
|
#GOGOEND
|
|
|
|
|
|
#END
|
|
|
|
|
|
COURSE:Easy
|
|
LEVEL:2
|
|
BALLOON:8
|
|
SCOREINIT:1000
|
|
SCOREDIFF:350
|
|
|
|
|
|
#START
|
|
|
|
|
|
100000000000000000000000000000000000000000000000,
|
|
#BPMCHANGE 134.66
|
|
100000000000000000000000200000000000000000000000,
|
|
#BPMCHANGE 134.38
|
|
100000000000000000000000100000000000000000000000,
|
|
500000000000000000800000000000000000000000000000,
|
|
100000000000000000000000000000000000000000000000,
|
|
100000000000000000000000200000000000000000000000,
|
|
100000000000000000000000100000000000000000000000,
|
|
#BPMCHANGE 134
|
|
500000000000000000800000000000000000000000000000,
|
|
100000000000000000000000100000000000000000000000,
|
|
100000000000100000000000100000000000000000000000,
|
|
100000000000000000000000000000000000000000000000,
|
|
100000000000000000000000000000000000000000000000,
|
|
#BPMCHANGE 131.4
|
|
100000000000000000000000000000000000000000000000,
|
|
#BPMCHANGE 136.71
|
|
100000000000100000000000000000000000000000000000,
|
|
#BPMCHANGE 134
|
|
100000000000000000000000200000000000200000000000,
|
|
000000000000000000000000000000000000000000000000,
|
|
100000000000000000100000100000000000000000000000,
|
|
100000000000000000100000100000000000000000000000,
|
|
300000000000000000000000000000000000200000000000,
|
|
000000000000200000000000000000000000200000000000,
|
|
100000000000000000100000100000000000000000000000,
|
|
100000000000000000100000100000000000000000000000,
|
|
100000000000100000000000000000000000300000000000,
|
|
300000000000000000000000000000000000000000000000,
|
|
100000000000000000100000100000000000000000000000,
|
|
100000000000000000100000100000000000000000000000,
|
|
300000000000300000000000000000000000200000000000,
|
|
000000000000200000000000000000000000200000000000,
|
|
100000000000000000100000100000000000000000000000,
|
|
100000000000000000100000100000000000000000000000,
|
|
300000000000300000000000300000000000000000000000,
|
|
600000000000000000800000000000000000000000000000,
|
|
#GOGOSTART
|
|
100000000000000000100000100000000000000000000000,
|
|
100000000000000000100000100000000000000000000000,
|
|
100000000000100000000000100000000000000000000000,
|
|
100000000000000000000000000000000000000000000000,
|
|
100000000000000000100000100000000000000000000000,
|
|
100000000000000000100000100000000000000000000000,
|
|
100000000000100000000000100000000000000000000000,
|
|
500000000000000000800000000000000000000000000000,
|
|
100000000000000000100000100000000000000000000000,
|
|
100000000000000000100000100000000000000000000000,
|
|
100000000000100000000000100000000000000000000000,
|
|
100000000000000000000000000000000000000000000000,
|
|
100000000000000000000000000000000000000000000000,
|
|
100000000000000000000000100000000000100000000000,
|
|
500000000000000000000000000000000000800000000000,
|
|
000000000000000000000000000000000000100000000000,
|
|
100000000000000000000000000000000000200000000000,
|
|
100000000000000000000000100000000000200000000000,
|
|
9,
|
|
08,
|
|
|
|
#GOGOEND
|
|
|
|
|
|
#END
|
|
|