Files
ESE/02 Anime/Miracle Go! Princess Pretty Cure/Miracle Go! Princess Pretty Cure.tja
T
2023-06-15 19:00:23 -05:00

402 lines
16 KiB
Plaintext

//TJADB Project
TITLE:Miracle Go! Princess Pretty Cure
TITLEJA:Miracle Go! プリンセスプリキュア
SUBTITLE:--Karin Isobe/Go! Princess Pretty Cure
BPM:171
WAVE:Miracle Go! Princess Pretty Cure.ogg
OFFSET:-1.710
DEMOSTART:74.129
COURSE:Oni
LEVEL:8
BALLOON:12
SCOREINIT:660
SCOREDIFF:180
#START
100000000000000000000000100000000100000000100000,
200000000000000000000000200000000000000000000000,
100000000000200000000000200000000000100000000000,
#BPMCHANGE 171.37
#SCROLL 0.99
200000000000000000000000200000000000000000000000,
#BPMCHANGE 171
#SCROLL 1
100000000000200000000000100000100000200000000000,
100000000000200000000000100000100000200000000000,
100000200000100000200000100000200000100000200000,
100100200000100000200000100100200000100000200000,
#BPMCHANGE 171.37
#SCROLL 0.99
100100200000100100200000100100200000100100200000,
#BPMCHANGE 171
#SCROLL 1
100000000000200000000200100000100000100200200200,
100000200200100000200200100000100000200200200000,
300000400000000000000000300000400000000000000000,
300000400000000000300000000000000000000000000000,
#GOGOSTART
300000000000300000000000000000100100200000100000,
000000100100200000100000000000100100200000100000,
200000000000200000000000100000100100200000100000,
000000100000200000000200100000100000200200200000,
100100100000200000000000100100100000200000000000,
300000000000300000000000300000000000000000000000,
200200200000200200200000200200200000300000000000,
300000000000300000000000100000100100200000100100,
200000000000200000100000000000100000200000200000,
100000000000200000200200100000200000200000100000,
200000000000200000100000000000100000200000700000,
000000000000000000000000000000000000800000000000,
#GOGOEND
100000000000000000000000200000000000000000000000,
100000000000100000000000200000000000200200200000,
100000000000200000000000100000100000200000000000,
100000000000200000100000000000200000200000200000,
000000000000300000000000300000000000300000000000,
100000000000200000100000000000000000000000100000,
100200100000000000100000100200100000000000200200,
100000200200100000200200100000000000000000000000,
100000000000200000000000100000100000200000000000,
100000000000200000100000000000100000200000000000,
100000100000200000100000100000100000200000000000,
100000100000200000100000000000200000200000200000,
000000000000300000000000300000000000300000000000,
100000000000200000100000000000000000000000100000,
100200100000000000100000100200100000000000200200,
100000200200100000200200100000000000000000000000,
#MEASURE 3/4
100000000000200000000000200000000000,
100000000000200000000000200000000000,
100000000000200000000000200000000000,
#MEASURE 4/4
100000000000200000000000200200200200200200200200,
100000000000200000000200100000100000200000000000,
100000000000200000000200100000100000100200200200,
100000200200100000200200100000200200100000200200,
100000200200100000200200100200200200100000200200,
100000000000100100200000100100200000000000000000,
100200200000100200200000000000000000000000000000,
600000000000000000000000000000000008000000000000,
300000400000000000000000000000000000000000000000,
#GOGOSTART
300000000000300000000000000000100100200000100000,
000000100100200000100000000000100100200000100000,
200000000000200000000000100000100100200000100000,
000000100000200000000200100000100000200000000000,
100100100000200000000000100100100000200000000000,
300000000000300000000000300000000000000000200200,
100000100000200000200200100000100000200000200200,
100000100000200000200200200200200200200200200000,
300000000000300000000000000000200200100000200000,
000000200200100000200000000000100100200000100000,
200000000000200000000000100000100100200000100000,
000000100000200000000200100000100000200200200000,
100100100000200000000000100100100000200000000000,
300000000000300000000000300000000000000000000000,
200200200000200200200000200200200000300000000000,
300000000000300000000000500000000000000000000000,
000000000000000000000000000000000008000000000000,
100000100000100000100000000000300000000000400000,
000000000000100200200000000000000000000000000000,
#GOGOEND
#END
COURSE:Hard
LEVEL:3
BALLOON:15,7
SCOREINIT:720
SCOREDIFF:218
#START
100000000000000000000000000000000000000000000000,
200000000000000000000000000000000000000000000000,
100000000000200000000000200000000000100000000000,
200000000000000000000000200000000000000000000000,
100000000000200000000000100000000000200000000000,
100000000000200000000000100000000000200000000000,
500000000000000000000000000080000000000000000000,
200000000000000000000000200000000000000000000000,
500000000000000000000000000080000000000000000000,
100000000000200000000000100000000000200000000000,
100000000000100000000000100000000000100000000000,
300000400000000000000000300000400000000000000000,
300000400000000000300000000000000000000000000000,
#GOGOSTART
300000000000300000000000000000100000100000200000,
000000100000100000200000000000100000100000200000,
200000000000200000000000200000000000500000000000,
000000000000000000000000000080000000000000000000,
100000100000200000000000100000100000200000000000,
300000000000300000000000300000000000000000000000,
200000200000200000200000200000000000300000000000,
300000000000300000000000900000000000000000000000,
000000000000000000000000000000000000000000000000,
000000000000000000000000800000000000000000000000,
100000000000200000000000100000000000200000700000,
000000000000000000000000000000800000000000000000,
#GOGOEND
100000000000000000000000200000000000000000000000,
100000000000100000000000200000000000000000000000,
100000000000100000000000200000000000200000000000,
100000000000100000000000000000200000200000200000,
000000000000300000000000300000000000300000000000,
100000000000200000200000000000000000000000100000,
100000200000000000100000100000200000000000100000,
100000000000100000000000200000000000000000000000,
100000000000100000000000200000000000200000000000,
100000000000100000000000200000000000000000000000,
100000100000200000000000200000200000100000000000,
100000100000200000200000000000200000200000200000,
000000000000300000000000300000000000300000000000,
100000000000100000200000000000000000000000100000,
100000200000000000100000100000200000000000100000,
100000000000100000000000200000000000000000000000,
#MEASURE 3/4
100000000000200000000000200000000000,
000000000000000000000000000000000000,
100000000000200000000000200000000000,
000000000000000000000000000000000000,
100000000000200000000000200000000000,
000000000000000000000000000000000000,
#MEASURE 4/4
100000000000200000000000000000200000200000100000,
000000100000100000200000000000200000200000100000,
000000100000100000200000000000000000000000000000,
100000000000100000000000100000000000100000100000,
000000000000100000100000100000000000100000100000,
000000000000200000200000200000200000000000000000,
200000200000200000200000000000000000000000000000,
600000000000000000000000000000000080000000000000,
300000400000000000000000000000000000000000000000,
#GOGOSTART
300000000000300000000000000000100000200000100000,
000000100000200000100000000000100000100000200000,
200000000000200000000000200000000000500000000000,
000000000000000000000000000080000000000000000000,
100000100000200000000000100000100000200000000000,
300000000000300000000000300000000000000000000000,
500000000000000000000000000000000000000000000000,
000000000080000000000000000000000000000000000000,
300000000000300000000000000000100000200000100000,
000000100000200000100000000000100000100000200000,
200000000000200000000000200000000000500000000000,
000000000000000000000000000080000000000000000000,
100000100000200000000000200000200000100000000000,
300000000000300000000000300000000000000000000000,
200000200000200000200000200000000000300000000000,
300000000000300000000000500000000000000000000000,
000000000000000000000000000000000080000000000000,
100000100000100000100000000000300000000000400000,
000000000000300000000000000000000000000000000000,
#GOGOEND
#END
COURSE:Normal
LEVEL:4
BALLOON:12,12
SCOREINIT:980
SCOREDIFF:400
#START
100000000000000000000000000000000000000000000000,
100000000000000000000000000000000000000000000000,
100000000000000000000000200000000000000000000000,
200000000000000000000000200000000000000000000000,
100000000000000000000000100000000000000000000000,
100000000000000000000000100000000000000000000000,
500000000000000000000000000080000000000000000000,
200000000000000000000000200000000000000000000000,
500000000000000000000000000080000000000000000000,
200000000000000000000000200000000000000000000000,
500000000000000000000000000080000000000000000000,
300000300000000000000000300000300000000000000000,
300000300000000000300000000000000000000000000000,
#GOGOSTART
300000000000300000000000000000000000100000000000,
000000000000100000000000000000000000100000000000,
200000000000200000000000200000000000500000000000,
000000000000000000000000000080000000000000000000,
100000000000000000000000100000000000000000000000,
300000000000300000000000300000000000000000000000,
200000000000200000000000200000000000300000000000,
300000000000300000000000700000000000000000000000,
000000000000000000000000000000000000000000000000,
000000000000000000800000000000000000000000000000,
000000000000000000000000000000000000000000000000,
000000000000000000000000000000000000000000000000,
#GOGOEND
100000000000000000000000100000000000000000000000,
100000000000000000000000000000000000000000000000,
200000000000000000000000200000000000000000000000,
200000000000000000000000000000200000200000200000,
000000000000300000000000300000000000300000000000,
000000000000000000000000000000000000000000000000,
100000100000000000000000100000100000000000000000,
100000000000100000000000100000000000000000000000,
100000000000000000000000100000000000000000000000,
100000000000000000000000000000000000000000000000,
200000000000000000000000200000000000000000000000,
200000000000000000000000000000200000200000200000,
000000000000300000000000300000000000300000000000,
000000000000000000000000000000000000000000000000,
100000000000000000000000100000000000000000000000,
100000000000100000000000100000000000000000000000,
#MEASURE 3/4
000000000000200000000000200000000000,
000000000000000000000000000000000000,
000000000000200000000000200000000000,
000000000000000000000000000000000000,
000000000000200000000000200000000000,
000000000000000000000000000000000000,
#MEASURE 4/4
000000000000200000000000200000000000000000000000,
100000000000000000000000100000000000000000000000,
100000000000000000000000100000000000000000000000,
100000000000100000000000100000000000100000000000,
100000000000100000000000100000000000100000000000,
000000000000200000000000200000000000000000000000,
200000000000200000000000000000000000000000000000,
600000000000000000000000000000000080000000000000,
300000300000000000000000000000000000000000000000,
#GOGOSTART
300000000000300000000000000000000000100000000000,
000000000000100000000000000000000000100000000000,
200000000000200000000000200000000000500000000000,
000000000000000000000000000080000000000000000000,
100000000000000000000000100000000000000000000000,
300000000000300000000000300000000000000000000000,
500000000000000000000000000000000000000000000000,
000000000080000000000000000000000000000000000000,
300000000000300000000000000000000000100000000000,
000000000000100000000000000000000000100000000000,
200000000000200000000000200000000000500000000000,
000000000000000000000000000080000000000000000000,
100000000000000000000000100000000000000000000000,
300000000000300000000000300000000000000000000000,
200000000000200000000000200000000000300000000000,
300000000000300000000000700000000000000000000000,
000000000000000000000000000000000000000000000000,
000000000000000000800000000000000000000000000000,
000000000000000000300000000000000000000000000000,
#GOGOEND
#END
COURSE:Easy
LEVEL:3
BALLOON:7,7
SCOREINIT:800
SCOREDIFF:528
#START
000000000000000000000000000000000000000000000000,
000000000000000000000000000000000000000000000000,
000000000000000000000000000000000000000000000000,
000000000000000000000000000000000000000000000000,
100000000000000000000000000000000000000000000000,
100000000000000000000000000000000000000000000000,
100000000000000000000000000000000000000000000000,
100000000000000000000000100000000000000000000000,
100000000000000000000000000000000000000000000000,
100000000000000000000000100000000000000000000000,
500000000000000000000000000080000000000000000000,
300000000000000000000000300000000000000000000000,
300000000000000000000000000000000000000000000000,
#GOGOSTART
300000000000300000000000000000000000100000000000,
000000000000100000000000000000000000100000000000,
000000000000100000000000000000000000500000000000,
000000000000000000000000000080000000000000000000,
100000000000000000000000100000000000000000000000,
300000000000300000000000300000000000000000000000,
000000000000000000000000000000000000300000000000,
300000000000300000000000900000000000000000000000,
000000000000000000000000000000000000000000000000,
000000000000000000000000000000000000000000000000,
800000000000000000000000000000000000000000000000,
000000000000000000000000000000000000000000000000,
#GOGOEND
100000000000000000000000000000000000000000000000,
100000000000000000000000000000000000000000000000,
100000000000000000000000100000000000000000000000,
100000000000000000000000000000000000000000000000,
000000000000300000000000300000000000300000000000,
000000000000000000000000000000000000000000000000,
100000000000000000000000100000000000000000000000,
100000000000100000000000100000000000000000000000,
100000000000000000000000000000000000000000000000,
100000000000000000000000000000000000000000000000,
100000000000000000000000100000000000000000000000,
100000000000000000000000000000000000000000000000,
000000000000300000000000300000000000300000000000,
000000000000000000000000000000000000000000000000,
100000000000000000000000100000000000000000000000,
100000000000100000000000100000000000000000000000,
#MEASURE 3/4
000000000000100000000000100000000000,
000000000000000000000000000000000000,
000000000000100000000000100000000000,
000000000000000000000000000000000000,
000000000000100000000000100000000000,
000000000000000000000000000000000000,
#MEASURE 4/4
000000000000100000000000100000000000000000000000,
200000000000000000000000200000000000000000000000,
200000000000000000000000200000000000000000000000,
100000000000000000000000100000000000000000000000,
100000000000000000000000100000000000000000000000,
000000000000100000000000100000000000000000000000,
100000000000100000000000000000000000000000000000,
600000000000000000000000000080000000000000000000,
300000000000000000000000000000000000000000000000,
#GOGOSTART
300000000000300000000000000000000000100000000000,
000000000000100000000000000000000000100000000000,
000000000000100000000000000000000000500000000000,
000000000000000000000000000080000000000000000000,
100000000000000000000000100000000000000000000000,
300000000000300000000000300000000000000000000000,
500000000000000000000000000000000000000000000000,
000000000080000000000000000000000000000000000000,
300000000000300000000000000000000000100000000000,
000000000000100000000000000000000000100000000000,
000000000000100000000000000000000000500000000000,
000000000000000000000000000080000000000000000000,
100000000000000000000000100000000000000000000000,
300000000000300000000000300000000000000000000000,
000000000000000000000000000000000000300000000000,
300000000000300000000000900000000000000000000000,
000000000000000000000000000000000000000000000000,
000000000000000000000000000000000000000000000000,
800000000000000000300000000000000000000000000000,
#GOGOEND
#END