Files
ESE/02 Anime/NO DOUBT/NO DOUBT.tja
T
2023-06-15 19:15:39 -05:00

355 lines
3.8 KiB
Plaintext

//TJADB Project
TITLE:NO DOUBT
TITLEJA:NO DOUBT
SUBTITLE:--IDOLiSH7/IDOLiSH7
SUBTITLEJA:「アイドリッシュセブン」より
BPM:128
WAVE:NO DOUBT.ogg
OFFSET:-2.075
DEMOSTART:62.016
COURSE:Oni
LEVEL:7
SCOREINIT:710
SCOREDIFF:195
#START
,
,
,
,
3,
3,
3,
3,//8
#GOGOSTART
1111202000100200,
1111202000200100,
1111202000100200,
500000000000000000000000000000000000000008000000,//12
#GOGOEND
,
1000002020010000,
1000002020010000,
1000002020010000,
1000002020010000,
1001102000102010,
1001102000102010,
1001102000102010,
1101101100002011,
05000000,
000000000000000000000008000000000000000000100000,
1001001000201022,
1001001022102010,
1001001020102022,
1001001022102000,
1001001000201022,
1001001022102010,
1021001010210010,
100000200100000000100000500000000000000000000008,
0111,//32
#GOGOSTART
1101010110201020,
1000201110010010,
2202002010221020,
1022002010221020,
1021102000211020,
0022102110020020,
2202002010221020,
1022002010221020,
1101010110201020,
1000201110010010,
2202002010221020,
1022002010221020,
1021102000211020,
0022102110020020,
2202002010221020,
1022002010221020,
3003003000303030,
0030000011111111,//50
#GOGOEND
1000000000202011,//51
#GOGOSTART
0020102010221020,
1020102010221020,
1020102010221020,
1020102010202011,
0020102010211020,
1020102010211020,
1020102010211020,
1020102010202211,//59
#GOGOEND
1111101101102010,
1111101101102010,
1111101101102010,
1112221112221010,
#END
COURSE:Hard
LEVEL:4
BALLOON:7,11,8,10,20,20
SCOREINIT:1500
SCOREDIFF:450
#START
,
,
,
,
3,
3,
3,
3,//8
#GOGOSTART
1110,
1110,
1110,
500000000000000000000000000000000000000008000000,//12
#GOGOEND
,
12,
12,
12,
12,
1102,
1102,
1102,
1001001000000000,
05000000,
000000000000000000000008000000000000000000000000,
1001001000000000,
20020000,
11,
20020000,
1001001000000000,
1001001000000000,
11,
200000000000000000200000500000000000000000000008,
,//32
#GOGOSTART
1011,
1000001110010010,
70000800,
00000001,
10110022,
0000002220020020,
7,
8,
1011,
1000001110010010,
7008,
00000001,
10110011,
0000002020020020,
07000000,
8,
3003003000303030,
03000000,//50
#GOGOEND
0000000000101011,//51
#GOGOSTART
09000000,
00090008,
,
0000000000101011,
09000000,
00090008,
,
,//59
#GOGOEND
3002,
3002,
3002,
3003003003003030,
,
,
,
#END
COURSE:Normal
LEVEL:2
BALLOON:6,9,6,8,17,17
#START
,
,
,
,
3,
3,
3,
3,//8
#GOGOSTART
11,
11,
11,
500000000000000000000000000000000000000008000000,//12
#GOGOEND
,
12,
12,
12,
1,
1002,
1002,
1002,
1,
05000000,
000000000000000000000008000000000000000000000000,
10010000,
10010000,
22,
2,
10010000,
10010000,
22,
200000000000000000000000500000000000000000000008,
,//32
#GOGOSTART
1011,
12,
70000800,
00000001,
10110011,
02,
7,
8,
1011,
12,
7008,
00000001,
10110011,
02,
07000000,
8,
30030003,
03000000,//50
#GOGOEND
,//51
#GOGOSTART
09000000,
00090008,
,
,
09000000,
00090008,
,
,//59
#GOGOEND
3,
3,
3,
600000000000000000000000000000000000000008000000,
,
,
,
#END
COURSE:Easy
LEVEL:1
BALLOON:5,7,5,7,15,15
#START
,
,
,
,
3,
3,
3,
3,//8
#GOGOSTART
11,
11,
11,
500000000000000000000000000000000000000008000000,//12
#GOGOEND
,
1,
,
1,
,
1,
1,
1,
1,
05000000,
000000000000000000000008000000000000000000000000,
1,
1,
11,
2,
1,
1,
11,
200000000000000000000000500000000000000000000008,
,//32
#GOGOSTART
11,
12,
70000800,
,
1,
02,
7,
8,
11,
12,
7008,
,
1,
02,
07000000,
8,
30000003,
03000000,//50
#GOGOEND
,//51
#GOGOSTART
09000000,
00090008,
,
,
09000000,
00090008,
,
,//59
#GOGOEND
3,
3,
3,
600000000000000000000000000000000000000008000000,
,
,
,
#END