Files
ESE/02 Anime/Namikaze Satellite/Namikaze Satellite.tja
T
2023-01-17 00:45:18 -05:00

332 lines
13 KiB
Plaintext

//TJADB Project
TITLE:Namikaze Satellite
TITLEJA:波風サテライト
SUBTITLE:--Snorkel/NARUTO
SUBTITLEJA:「NARUTO-ナルト-」より
BPM:189
WAVE:Namikaze Satellite.ogg
OFFSET:-1.333
DEMOSTART:36.253
COURSE:Oni
LEVEL:7
BALLOON:16
SCOREINIT:920
SCOREDIFF:250
#START
300000000000200000100000000000100000100000000000,
300000000000200000100000000000200000200000000000,
300000000000200000100000000000100000100000000000,
100000100000100000100000100000100000100000100000,
100000000000200000000000100000100000200000100000,
100000000000200000100000000000100000200000000000,
100000000000200000000000100000100000200000100000,
100000000000200000100000000000200000200000000000,
100000000000200000000000100000100000200000100000,
100000000000200000100000000000100000200000000000,
100000000000000000000000100000000000000000000000,
300000000000000000000000300000000000000000000000,
100000000000200000000000000000000000200000000000,
100000000000000000000000000000000000000000000000,
100000000000200000000000000000000000200000000000,
100000000000000000200000200000000000000000000000,
100000000000200000000000000000000000200000000000,
100000000000000000000000000000000000000000000000,
100000000000200000000000000000000000200000000000,
100000000000000000200000200000100000100000100000,
100000000000200000000000100000100000200000000000,
100000100000200000000000100000100000100000000000,
100000000000200000000000100000100000200000000000,
100000100000200000000000100000200000200000000000,
100000000000200000000000100000100000200000000000,
100000100000200000000000100000100000100000000000,
100000000000200000000000100000200000200000000000,
300000300000300000300000000000000000000000000000,
#GOGOSTART
100000000000200000000000100000100000200000100000,
100000000000200000100000000000100000200000000000,
100000000000200000000000100000200000200000100000,
000000100000000000200200200000000000100000000000,
100000000000200000000000100000100000200000100000,
100000000000200000100000100000100000200000000000,
100000000000000000500000000000000000000000000000,
000000000008000000000000100000000000100000000000,
100000000000200000000000100000100000200000100000,
100000000000200000100000000000100000200000000000,
100000000000200000000000100000200000200000100000,
000000100000000000200200200000000000100000000000,
100000000000200000100000100000100000200000100000,
100000100000200000100000200000100000100000000000,
000000000000000000000000000000000000000000000000,
000000000000000000000000100000000000100000000000,
100000100000200000200000100000100000200000000000,
100000100000200000200000100000100000100000000000,
100000000000200000000000100000200000200000100000,
000000100000000000200200200000000000100000000000,
100000000000200000100000100000100000200000000000,
100000100000200000100000100000100000200000000000,
100000000000000000500000000000000000000000000000,
000000000008000000000000100000000000100000000000,
100000100000200000200000100000100000200000000000,
100000100000200000200000100000100000100000000000,
100000000000200000000000100000200000200000100000,
000000100000000000200200200000000000100000000000,
100000000000200000100000100000100000200000100000,
100000100000200000100000100000100000200000100000,
500000000000000000000000000000000000000000000008,
000000000000000000000000100000000000100000000000,
#GOGOEND
300000000000000000000000000000000000000000000000,
300000000000000000000000000000000000000000000000,
700000000000000000000000000000000000000000000008,
#END
COURSE:Hard
LEVEL:4
BALLOON:12
SCOREINIT:790
SCOREDIFF:290
#START
100000000000000000100000000000000000000000000000,
100000000000000000100000000000000000000000000000,
300000000000000000300000000000000000000000000000,
500000000000000000000000000000800000000000000000,
100000000000200000000000100000100000200000000000,
100000000000200000000000100000000000200000000000,
100000000000200000000000100000100000200000000000,
100000000000200000000000100000000000200000000000,
100000000000200000000000100000100000200000000000,
100000000000200000000000100000000000200000000000,
100000000000000000000000100000000000000000000000,
300000000000000000000000300000000000000000000000,
100000000000000000000000000000000000000000000000,
100000000000200000000000000000000000200000000000,
100000000000000000000000000000000000000000000000,
100000000000200000000000000000000000200000000000,
100000000000000000000000000000000000000000000000,
100000000000200000000000000000000000200000000000,
100000000000000000000000000000000000000000000000,
100000000000000000000000100000100000100000100000,
100000000000200000000000100000100000200000000000,
100000100000200000000000100000100000100000000000,
100000000000200000000000100000100000200000000000,
100000100000200000000000100000100000100000000000,
100000000000200000000000100000100000200000000000,
100000100000200000000000100000100000100000000000,
100000000000100000000000100000000000100000000000,
300000300000300000300000000000000000000000000000,
#GOGOSTART
100000000000200000000000100000100000200000000000,
100000000000200000000000100000000000200000000000,
500000000000000000000000000000800000000000000000,
000000000000000000000000100000000000100000000000,
100000000000200000000000100000100000200000000000,
100000100000200000000000100000000000200000000000,
100000000000000000500000000000000000000000800000,
000000000000000000000000100000000000100000000000,
100000000000200000000000100000100000200000000000,
100000000000200000000000100000000000200000000000,
500000000000000000000000000000800000000000000000,
000000000000000000000000100000000000100000000000,
100000000000200000000000100000100000200000000000,
100000100000200000000000100000100000100000000000,
000000000000000000000000000000000000000000000000,
000000000000000000000000100000000000100000000000,
100000000000200000000000100000100000200000000000,
100000000000200000000000100000000000200000000000,
500000000000000000000000000000800000000000000000,
000000000000000000000000100000000000100000000000,
100000000000200000000000100000100000200000000000,
100000100000200000000000100000000000200000000000,
100000000000000000500000000000000000000000800000,
000000000000000000000000100000000000100000000000,
100000000000200000000000100000100000200000000000,
100000000000200000000000100000000000200000000000,
500000000000000000000000000000800000000000000000,
000000000000000000000000100000000000100000000000,
100000000000200000000000100000100000200000000000,
100000100000200000000000100000100000100000000000,
500000000000000000000000000000000000000000800000,
000000000000000000000000100000000000100000000000,
#GOGOEND
300000000000000000000000000000000000000000000000,
300000000000000000000000000000000000000000000000,
700000000000000000000000000000000000000000000008,
#END
COURSE:Normal
LEVEL:5
BALLOON:8,8
SCOREINIT:920
SCOREDIFF:390
#START
300000000000000000000000000000000000000000000000,
300000000000000000000000000000000000000000000000,
300000000000000000000000000000000000000000000000,
500000000000000000000000800000000000000000000000,
100000000000000000000000100000100000100000000000,
100000000000000000000000200000000000000000000000,
100000000000000000000000100000100000100000000000,
100000000000000000000000100000000000000000000000,
100000000000000000000000100000100000100000000000,
100000000000000000000000200000000000000000000000,
100000000000000000000000100000000000000000000000,
300000000000000000000000300000000000000000000000,
100000000000000000000000000000000000000000000000,
100000000000100000000000100000000000000000000000,
100000000000000000000000000000000000000000000000,
100000000000100000000000100000000000000000000000,
100000000000000000000000000000000000000000000000,
100000000000100000000000100000000000000000000000,
100000000000000000000000000000000000000000000000,
100000000000000000000000100000000000000000000000,
100000000000000000000000100000100000100000000000,
100000000000100000000000200000000000000000000000,
100000000000000000000000100000100000100000000000,
100000000000100000000000200000000000000000000000,
100000000000000000000000100000100000100000000000,
100000000000100000000000200000000000000000000000,
300000000000300000000000300000000000300000000000,
000000000000000000000000000000000000000000000000,
#GOGOSTART
100000000000200000000000100000100000100000000000,
100000000000000000000000200000000000000000000000,
500000000000000000000000000000800000000000000000,
000000000000000000000000000000000000000000000000,
100000000000200000000000100000100000100000000000,
100000000000000000000000200000000000000000000000,
100000000000000000500000000000000000000000800000,
000000000000000000000000000000000000000000000000,
100000000000200000000000100000100000100000000000,
100000000000000000000000200000000000000000000000,
500000000000000000000000000000800000000000000000,
000000000000000000000000000000000000000000000000,
100000000000200000000000100000100000100000000000,
100000000000000000000000100000000000700000000000,
800000000000000000000000000000800000000000000000,
000000000000000000000000000000000000000000000000,
100000000000200000000000100000100000100000000000,
100000000000200000000000100000000000200000000000,
500000000000000000000000000000800000000000000000,
000000000000000000000000100000000000000000000000,
100000000000200000000000100000100000100000000000,
100000000000200000000000100000000000200000000000,
100000000000000000500000000000000000000000800000,
000000000000000000000000100000000000000000000000,
100000000000200000000000100000100000100000000000,
100000000000200000000000100000000000200000000000,
500000000000000000000000000000800000000000000000,
000000000000000000000000100000000000000000000000,
100000000000200000000000100000100000100000000000,
100000000000200000000000100000000000200000000000,
500000000000000000000000000000000000000000800000,
000000000000000000000000100000000000100000000000,
#GOGOEND
300000000000000000000000000000000000000000000000,
300000000000000000000000000000000000000000000000,
900000000000000000000000000000000000000000000008,
#END
COURSE:Easy
LEVEL:4
BALLOON:6
SCOREINIT:920
SCOREDIFF:370
#START
300000000000000000000000000000000000000000000000,
300000000000000000000000000000000000000000000000,
300000000000000000000000000000000000000000000000,
500000000000000000000000800000000000000000000000,
100000000000000000000000100000000000000000000000,
100000000000000000000000200000000000000000000000,
100000000000000000000000000000000000000000000000,
100000000000000000000000000000000000000000000000,
100000000000000000000000100000000000000000000000,
100000000000000000000000200000000000000000000000,
100000000000000000000000100000000000000000000000,
300000000000000000000000300000000000000000000000,
100000000000000000000000000000000000000000000000,
100000000000100000000000100000000000000000000000,
100000000000000000000000000000000000000000000000,
100000000000100000000000100000000000000000000000,
100000000000000000000000000000000000000000000000,
100000000000100000000000100000000000000000000000,
100000000000000000000000000000000000000000000000,
100000000000000000000000100000000000000000000000,
100000000000000000000000200000000000000000000000,
100000000000100000000000200000000000000000000000,
100000000000000000000000200000000000000000000000,
100000000000100000000000200000000000000000000000,
100000000000000000000000200000000000000000000000,
100000000000100000000000200000000000000000000000,
100000000000000000000000100000000000000000000000,
300000000000000000000000000000000000000000000000,
#GOGOSTART
100000000000100000000000100000000000000000000000,
100000000000000000000000200000000000000000000000,
500000000000000000000000800000000000000000000000,
000000000000000000000000000000000000000000000000,
100000000000100000000000100000000000000000000000,
100000000000000000000000200000000000000000000000,
100000000000000000000000100000000000000000000000,
000000000000000000000000000000000000000000000000,
100000000000100000000000100000000000000000000000,
100000000000000000000000200000000000000000000000,
500000000000000000000000800000000000000000000000,
000000000000000000000000000000000000000000000000,
100000000000100000000000100000000000000000000000,
100000000000000000000000100000000000500000000000,
000000000000000000000000800000000000000000000000,
000000000000000000000000000000000000000000000000,
100000000000100000000000100000000000000000000000,
100000000000000000000000200000000000000000000000,
500000000000000000000000800000000000000000000000,
000000000000000000000000100000000000000000000000,
100000000000100000000000100000000000000000000000,
100000000000000000000000200000000000000000000000,
100000000000000000000000100000000000000000000000,
000000000000000000000000100000000000000000000000,
100000000000100000000000100000000000000000000000,
100000000000000000000000200000000000000000000000,
500000000000000000000000800000000000000000000000,
000000000000000000000000100000000000000000000000,
100000000000000000000000100000000000000000000000,
100000000000000000000000100000000000100000000000,
500000000000000000000000000000000000800000000000,
000000000000000000000000100000000000100000000000,
#GOGOEND
300000000000000000000000000000000000000000000000,
300000000000000000000000000000000000000000000000,
900000000000000000000000000000000000000000000008,
#END