Files
ESE/02 Anime/Nandedarou -Ryousan Version-/Nandedarou -Ryousan Version-.tja
T

659 lines
16 KiB
Plaintext
Raw Blame History

This file contains ambiguous Unicode characters
This file contains Unicode characters that might be confused with other characters. If you think that this is intentional, you can safely ignore this warning. Use the Escape button to reveal them.
//TJADB Project
TITLE:Nandedarou -Ryousan Version-
TITLEJA:なんでだろう 両さんバージョン
SUBTITLE:--Tetsu & Tomo/KochiKame: Tokyo Beat Cops
BPM:160
WAVE:Nandedarou -Ryousan Version-.ogg
OFFSET:-1.533
DEMOSTART:66.556
COURSE:Oni
LEVEL:2
#START
000000000000000000000000000000000000000000000000,
#BPMCHANGE 161.25
100000000000000000200000000000000000100000000000,
000000200000000000000000100000000000200000000000,
#BPMCHANGE 175.5
100000000000200000000000100000000000200000000000,
#BPMCHANGE 176
000000100000200000100000200000000000200000000000,
#BPMCHANGE 172
100000000000100000100000100000000000000000000000,
#BPMCHANGE 170.5
100000000000100000100000100000000000000000000000,
#BPMCHANGE 171.5
100000000000000000000000100000000000100000100000,
#BPMCHANGE 170.5
100000000000200000100000000000200000100000200000,
#BPMCHANGE 171.5
100000000000200000100000000000200000100000200000,
#BPMCHANGE 169.5
100000000000200000100000000000200000100000200000,
#BPMCHANGE 165
000000100000100000100000100000000000200000000000,
#BPMCHANGE 143.5
100000000000000000000000000000000000000000000000,
#MEASURE 5/4
#BPMCHANGE 139
100000000000000000000000000000000000000000000000
#BPMCHANGE 152
000000000000,
#MEASURE 4/4
#BPMCHANGE 166
100000000000100000200000100000000000000000000000,
200000000000200000100000200000000000000000000000,
#BPMCHANGE 146.2
100000000000000000000000000000000000000000000000,
#MEASURE 5/4
#BPMCHANGE 163.7
100000000000000000000000000000000000000000000000000000000000,
#MEASURE 4/4
#BPMCHANGE 161
100000000000100000200000100000000000000000000000,
#BPMCHANGE 159
200000000000200000100000200000000000000000000000,
#BPMCHANGE 162.8
000000100000100000100000100000000000200000000000,
#BARLINEOFF
#BPMCHANGE 135.8
100000000000000000000000000000000000000000000000,
#BARLINEON
#MEASURE 5/4
#BPMCHANGE 158
100000000000000000000000000000000000000000000000000000000000,
#MEASURE 4/4
#BPMCHANGE 165
100000000000100000200000100000000000000000000000,
#BPMCHANGE 166.5
200000000000200000100000200000000000000000000000,
#BPMCHANGE 148
100000000000000000000000000000000000000000000000,
#MEASURE 5/4
#BPMCHANGE 157.8
100000000000000000000000000000000000000000000000,
#MEASURE 2/4
#BPMCHANGE 128
100000000000000000000000,
#MEASURE 6/4
#BPMCHANGE 136.5
000000200000
#BPMCHANGE 107
#SCROLL 1.27570093458
200000200000
#BPMCHANGE 95.1
#SCROLL 1.43533123028
200000000000
#BPMCHANGE 78
000000000000000000000000
#BPMCHANGE 96
000000000000,
#MEASURE 2/4
#BPMCHANGE 126
#SCROLL 1
100000000000000000000000,
#MEASURE 6/4
#BPMCHANGE 131.775
100000000000100000000000100000000000000000000000000000200000200000200000,
#MEASURE 4/4
#BPMCHANGE 132
200000000000000000000000000000000000000000000000,
#MEASURE 6/4
#BPMCHANGE 131
100000000000000000000000200000000000100000000000
#BPMCHANGE 125.3
200000000000000000000000,
#MEASURE 2/4
#BPMCHANGE 126.5
100000000000000000000000,
#MEASURE 4/4
300000000000300000000000
#BPMCHANGE 56.6
000000000000000000000000,
#MEASURE 2/4
#BPMCHANGE 119
100000000000
#BPMCHANGE 107
200000000000,
#MEASURE 6/4
#BPMCHANGE 98.5
100000000000000000000000
#BPMCHANGE 97.5
200000200000
#BPMCHANGE 74
#SCROLL 1.31756756757
200000200000
#BPMCHANGE 108
#SCROLL 0.90277777777
500000000000000000000008,
#BARLINEOFF
#MEASURE 4/4
#BPMCHANGE 171.5
#SCROLL 1
000000100000100000100000100000000000200000000000,
#BARLINEON
#BPMCHANGE 171
100000000000100000200000100000000000000000000000,
#BPMCHANGE 170
200000000000200000100000200000000000000000000000,
#BPMCHANGE 166
100000000000000000000000200000000000000000000000,
#BPMCHANGE 170
100000000000100000000000100000000000100000100000,
#BPMCHANGE 168
100000000000100000000000100000000000100000100000,
#BPMCHANGE 169
100000000000100000000000100000000000100000100000,
#BPMCHANGE 169.5
100000000000000000000000100000000000000000000000,
100000000000000000100000100000000000100000000000,
#BPMCHANGE 168.5
100000000000000000200000000000000000100000000000,
100000000000000000200000000000000000100000000000,
#BPMCHANGE 164
100000000000000000000000
#BPMCHANGE 137
100000000000000000000000,
500000000000000000000000000000000000000000000000,
#BPMCHANGE 136.5
000000000000000000000000008000000000000000000000,
#BARLINEOFF
0300,
#END
COURSE:Hard
LEVEL:3
SCOREINIT:1250
SCOREDIFF:380
#START
000000000000000000000000000000000000000000000000,
#BPMCHANGE 161.25
100000000000000000200000000000000000100000000000,
000000200000000000000000100000000000200000000000,
#BPMCHANGE 175.5
100000000000200000000000100000000000200000000000,
#BPMCHANGE 176
000000100000200000100000200000000000200000000000,
#BPMCHANGE 172
100000000000100000100000100000000000000000000000,
#BPMCHANGE 170.5
100000000000100000100000100000000000000000000000,
#BPMCHANGE 171.5
100000000000000000000000100000000000100000100000,
#BPMCHANGE 170.5
100000000000200000100000000000200000100000200000,
#BPMCHANGE 171.5
100000000000200000100000000000200000100000200000,
#BPMCHANGE 169.5
100000000000200000100000000000200000100000200000,
#BPMCHANGE 165
000000100000100000100000100000000000200000000000,
#BPMCHANGE 143.5
100000000000000000000000000000000000000000000000,
#MEASURE 5/4
#BPMCHANGE 139
100000000000000000000000000000000000000000000000
#BPMCHANGE 152
000000000000,
#MEASURE 4/4
#BPMCHANGE 166
100000000000100000200000100000000000000000000000,
200000000000200000100000200000000000000000000000,
#BPMCHANGE 146.2
100000000000000000000000000000000000000000000000,
#MEASURE 5/4
#BPMCHANGE 163.7
100000000000000000000000000000000000000000000000000000000000,
#MEASURE 4/4
#BPMCHANGE 161
100000000000100000200000100000000000000000000000,
#BPMCHANGE 159
200000000000200000100000200000000000000000000000,
#BPMCHANGE 162.8
000000100000100000100000100000000000200000000000,
#BARLINEOFF
#BPMCHANGE 135.8
100000000000000000000000000000000000000000000000,
#BARLINEON
#MEASURE 5/4
#BPMCHANGE 158
100000000000000000000000000000000000000000000000000000000000,
#MEASURE 4/4
#BPMCHANGE 165
100000000000100000200000100000000000000000000000,
#BPMCHANGE 166.5
200000000000200000100000200000000000000000000000,
#BPMCHANGE 148
100000000000000000000000000000000000000000000000,
#MEASURE 5/4
#BPMCHANGE 157.8
100000000000000000000000000000000000000000000000,
#MEASURE 2/4
#BPMCHANGE 128
100000000000000000000000,
#MEASURE 6/4
#BPMCHANGE 136.5
000000200000
#BPMCHANGE 107
#SCROLL 1.27570093458
200000200000
#BPMCHANGE 95.1
#SCROLL 1.43533123028
200000000000
#BPMCHANGE 78
000000000000000000000000
#BPMCHANGE 96
000000000000,
#MEASURE 2/4
#BPMCHANGE 126
#SCROLL 1
100000000000000000000000,
#MEASURE 6/4
#BPMCHANGE 131.775
100000000000100000000000100000000000000000000000000000200000200000200000,
#MEASURE 4/4
#BPMCHANGE 132
200000000000000000000000000000000000000000000000,
#MEASURE 6/4
#BPMCHANGE 131
100000000000000000000000200000000000100000000000
#BPMCHANGE 125.3
200000000000000000000000,
#MEASURE 2/4
#BPMCHANGE 126.5
100000000000000000000000,
#MEASURE 4/4
300000000000300000000000
#BPMCHANGE 56.6
000000000000000000000000,
#MEASURE 2/4
#BPMCHANGE 119
100000000000
#BPMCHANGE 107
200000000000,
#MEASURE 6/4
#BPMCHANGE 98.5
100000000000000000000000
#BPMCHANGE 97.5
200000200000
#BPMCHANGE 74
#SCROLL 1.31756756757
200000200000
#BPMCHANGE 108
#SCROLL 0.90277777777
500000000000000000000008,
#BARLINEOFF
#MEASURE 4/4
#BPMCHANGE 171.5
#SCROLL 1
000000100000100000100000100000000000200000000000,
#BARLINEON
#BPMCHANGE 171
100000000000100000200000100000000000000000000000,
#BPMCHANGE 170
200000000000200000100000200000000000000000000000,
#BPMCHANGE 166
100000000000000000000000200000000000000000000000,
#BPMCHANGE 170
100000000000100000000000100000000000100000100000,
#BPMCHANGE 168
100000000000100000000000100000000000100000100000,
#BPMCHANGE 169
100000000000100000000000100000000000100000100000,
#BPMCHANGE 169.5
100000000000000000000000100000000000000000000000,
100000000000000000100000100000000000100000000000,
#BPMCHANGE 168.5
100000000000000000200000000000000000100000000000,
100000000000000000200000000000000000100000000000,
#BPMCHANGE 164
100000000000000000000000
#BPMCHANGE 137
100000000000000000000000,
500000000000000000000000000000000000000000000000,
#BPMCHANGE 136.5
000000000000000000000000008000000000000000000000,
#BARLINEOFF
0300,
#END
COURSE:Normal
LEVEL:3
SCOREINIT:1440
SCOREDIFF:500
#START
000000000000000000000000000000000000000000000000,
#BPMCHANGE 161.25
100000000000000000200000000000000000100000000000,
000000200000000000000000100000000000200000000000,
#BPMCHANGE 175.5
100000000000200000000000100000000000200000000000,
#BPMCHANGE 176
000000100000200000100000200000000000000000000000,
#BPMCHANGE 172
100000000000000000000000100000000000000000000000,
#BPMCHANGE 170.5
100000000000000000000000100000000000100000000000,
#BPMCHANGE 171.5
100000000000000000000000100000000000100000000000,
#BPMCHANGE 170.5
100000000000000000000000100000000000000000000000,
#BPMCHANGE 171.5
100000000000000000000000000000000000000000000000,
#BPMCHANGE 169.5
000000000000000000000000000000000000000000000000,
#BPMCHANGE 165
000000100000100000100000100000000000000000000000,
#BPMCHANGE 143.5
100000000000000000000000000000000000000000000000,
#MEASURE 5/4
#BPMCHANGE 139
1000
#BPMCHANGE 152
0,
#MEASURE 4/4
#BPMCHANGE 166
100000000000100000100000100000000000000000000000,
100000000000100000100000100000000000000000000000,
#BPMCHANGE 146.2
100000000000000000000000000000000000000000000000,
#MEASURE 5/4
#BPMCHANGE 163.7
1,
#MEASURE 4/4
#BPMCHANGE 161
100000000000100000100000100000000000000000000000,
#BPMCHANGE 159
100000000000100000100000100000000000000000000000,
#BPMCHANGE 162.8
000000100000100000100000100000000000000000000000,
#BARLINEOFF
#BPMCHANGE 135.8
100000000000000000000000000000000000000000000000,
#BARLINEON
#MEASURE 5/4
#BPMCHANGE 158
1,
#MEASURE 4/4
#BPMCHANGE 165
100000000000100000100000100000000000000000000000,
#BPMCHANGE 166.5
100000000000100000100000100000000000000000000000,
#BPMCHANGE 148
100000000000000000000000000000000000000000000000,
#MEASURE 5/4
#BPMCHANGE 157.8
1,
#MEASURE 2/4
#BPMCHANGE 128
100000000000000000000000,
#MEASURE 6/4
#BPMCHANGE 136.5
000000200000
#BPMCHANGE 107
#SCROLL 1.27570093458
200000200000
#BPMCHANGE 95.1
#SCROLL 1.43533123028
200000000000
#BPMCHANGE 78
000000000000000000000000
#BPMCHANGE 96
000000000000,
#MEASURE 2/4
#BPMCHANGE 126
#SCROLL 1
100000000000000000000000,
#MEASURE 6/4
#BPMCHANGE 131.775
100000000000100000000000100000000000000000000000000000200000200000200000,
#MEASURE 4/4
#BPMCHANGE 132
200000000000000000000000000000000000000000000000,
#MEASURE 6/4
#BPMCHANGE 131
100000000000000000000000200000000000100000000000
#BPMCHANGE 125.3
000000000000000000000000,
#MEASURE 2/4
#BPMCHANGE 126.5
000000000000000000000000,
#MEASURE 4/4
300000000000300000000000
#BPMCHANGE 56.6
000000000000000000000000,
#MEASURE 2/4
#BPMCHANGE 119
100000000000
#BPMCHANGE 107
200000000000,
#MEASURE 6/4
#BPMCHANGE 98.5
100000000000000000000000
#BPMCHANGE 97.5
200000200000
#BPMCHANGE 74
#SCROLL 1.31756756757
200000200000
#BPMCHANGE 108
#SCROLL 0.90277777777
500000000000000000000008,
#BARLINEOFF
#MEASURE 4/4
#BPMCHANGE 171.5
000000100000100000100000100000000000000000000000,
#BARLINEON
#BPMCHANGE 171
#SCROLL 1
100000000000100000100000100000000000000000000000,
#BPMCHANGE 170
100000000000100000100000100000000000000000000000,
#BPMCHANGE 166
100000000000000000000000200000000000000000000000,
#BPMCHANGE 170
100000000000100000000000100000000000100000000000,
#BPMCHANGE 168
100000000000100000000000100000000000100000000000,
#BPMCHANGE 169
100000000000100000000000100000000000100000000000,
#BPMCHANGE 169.5
100000000000000000000000100000000000000000000000,
100000000000000000000000100000000000100000000000,
#BPMCHANGE 168.5
100000000000000000200000000000000000000000000000,
100000000000000000200000000000000000000000000000,
#BPMCHANGE 164
100000000000000000000000
#BPMCHANGE 137
100000000000000000000000,
500000000000000000000000000000000000000000000000,
#BPMCHANGE 136.5
000000000000000000000000008000000000000000000000,
#BARLINEOFF
0300,
#END
COURSE:Easy
LEVEL:2
SCOREINIT:1640
SCOREDIFF:880
#START
000000000000000000000000000000000000000000000000,
#BPMCHANGE 161.25
100000000000000000000000000000000000100000000000,
000000000000000000000000100000000000000000000000,
#BPMCHANGE 175.5
100000000000000000000000000000000000000000000000,
#BPMCHANGE 176
000000000000100000000000100000000000000000000000,
#BPMCHANGE 172
100000000000000000000000100000000000000000000000,
#BPMCHANGE 170.5
100000000000000000000000100000000000100000000000,
#BPMCHANGE 171.5
100000000000000000000000100000000000100000000000,
#BPMCHANGE 170.5
100000000000000000000000000000000000000000000000,
#BPMCHANGE 171.5
000000000000000000000000000000000000000000000000,
#BPMCHANGE 169.5
000000000000000000000000000000000000000000000000,
#BPMCHANGE 165
000000000000100000000000100000000000000000000000,
#BPMCHANGE 143.5
100000000000000000000000000000000000000000000000,
#MEASURE 5/4
#BPMCHANGE 139
1000
#BPMCHANGE 152
0,
#MEASURE 4/4
#BPMCHANGE 166
100000000000000000000000100000000000000000000000,
100000000000000000000000100000000000000000000000,
#BPMCHANGE 146.2
100000000000000000000000000000000000000000000000,
#MEASURE 5/4
#BPMCHANGE 163.7
1,
#MEASURE 4/4
#BPMCHANGE 161
100000000000000000000000100000000000000000000000,
#BPMCHANGE 159
100000000000000000000000100000000000000000000000,
#BPMCHANGE 162.8
000000000000100000000000100000000000000000000000,
#BARLINEOFF
#BPMCHANGE 135.8
100000000000000000000000000000000000000000000000,
#BARLINEON
#MEASURE 5/4
#BPMCHANGE 158
1,
#MEASURE 4/4
#BPMCHANGE 165
100000000000000000000000100000000000000000000000,
#BPMCHANGE 166.5
100000000000000000000000100000000000000000000000,
#BPMCHANGE 148
100000000000000000000000000000000000000000000000,
#MEASURE 5/4
#BPMCHANGE 157.8
1,
#MEASURE 2/4
#BPMCHANGE 128
100000000000000000000000,
#MEASURE 6/4
#BPMCHANGE 136.5
000000000000
#BPMCHANGE 107
#SCROLL 1.27570093458
200000000000
#BPMCHANGE 95.1
#SCROLL 1.43533123028
200000000000
#BPMCHANGE 78
000000000000000000000000
#BPMCHANGE 96
000000000000,
#MEASURE 2/4
#BPMCHANGE 126
#SCROLL 1
100000000000000000000000,
#MEASURE 6/4
#BPMCHANGE 131.775
100000000000000000000000100000000000000000000000000000000000200000000000,
#MEASURE 4/4
#BPMCHANGE 132
200000000000000000000000000000000000000000000000,
#MEASURE 6/4
#BPMCHANGE 131
100000000000000000000000100000000000100000000000
#BPMCHANGE 125.3
000000000000000000000000,
#MEASURE 2/4
#BPMCHANGE 126.5
000000000000000000000000,
#MEASURE 4/4
300000000000300000000000
#BPMCHANGE 56.6
000000000000000000000000,
#MEASURE 2/4
#BPMCHANGE 119
100000000000
#BPMCHANGE 107
100000000000,
#MEASURE 6/4
#BPMCHANGE 98.5
100000000000000000000000
#BPMCHANGE 97.5
200000000000
#BPMCHANGE 74
#SCROLL 1.31756756757
200000000000
#BPMCHANGE 108
#SCROLL 0.90277777777
500000000000000000000008,
#BARLINEOFF
#MEASURE 4/4
#BPMCHANGE 171.5
,
#BARLINEON
#BPMCHANGE 171
#SCROLL 1
100000000000000000000000100000000000000000000000,
#BPMCHANGE 170
100000000000000000000000100000000000000000000000,
#BPMCHANGE 166
100000000000000000000000100000000000000000000000,
#BPMCHANGE 170
100000000000000000000000000000000000000000000000,
#BPMCHANGE 168
100000000000000000000000100000000000100000000000,
#BPMCHANGE 169
100000000000000000000000100000000000100000000000,
#BPMCHANGE 169.5
100000000000000000000000100000000000000000000000,
100000000000000000000000100000000000100000000000,
#BPMCHANGE 168.5
100000000000000000000000200000000000000000000000,
12,
#BPMCHANGE 164
100000000000000000000000
#BPMCHANGE 137
100000000000000000000000,
500000000000000000000000000000000000000000000000,
#BPMCHANGE 136.5
000000000000000000000000008000000000000000000000,
#BARLINEOFF
0300,
#END