Files
ESE/02 Anime/Oh! Rival/Oh! Rival.tja
T
2023-01-17 00:45:18 -05:00

313 lines
6.8 KiB
Plaintext
Raw Blame History

This file contains ambiguous Unicode characters
This file contains Unicode characters that might be confused with other characters. If you think that this is intentional, you can safely ignore this warning. Use the Escape button to reveal them.
//TJADB Project
TITLE:Oh! Rival
TITLEJA:オー!リバル
SUBTITLE:--Porno Graffitti/Detective Conan: Sunflowers of Inferno
SUBTITLEJA:映画「名探偵コナン 業火の向日葵」より
BPM:129
WAVE:Oh! Rival.ogg
OFFSET:-2.072
DEMOSTART:65.785
COURSE:Oni
LEVEL:8
BALLOON:28,18
SCOREINIT:640
SCOREDIFF:150
#START
1021021120211011,
2022022220220222,
1021021120211011,
2022022220220222,
1001001120020022,
1001001120020000,
0112,
1144,
1000100010001011,
1000100010001011,
1010101110111011,
1111111100000000,
1001201110012022,
1001201010022020,
1001201110012022,
1001201010022020,
1001002010010020,
3003003030000040,
0020102101201021,
0020102100000040,
0020102101201021,
0020102100000040,
0020102100000040,
0020120100003000,
30012001,
2002002020000000,
1020102210201022,
1020102210210210,
1020102210201022,
1011202210112000,
40102111,
2001100220001022,
11121112,
1111222211112222,
0000000000101110,
#GOGOSTART
1021021120211011,
2022022220220222,
1021021120211011,
2022112210210212,
1021112010210000,
1021112010220070,
,
0800,
1021021120211011,
2022022220220222,
1021021120211011,
2022112210210210,
4021112010210000,
7,
8112,
2010111011111111,
2001201110012022,
1001201010022020,
1001201110012022,
1001201010022020,
1001002010010020,
3003003030000000,
#GOGOEND
#END
COURSE:Hard
LEVEL:7
BALLOON:50,22,15,26
SCOREINIT:780
SCOREDIFF:190
#START
100000100100000000100000200000100000200000100000,
200000000200000200200000200000000200000200200000,
100000100100000000100000200000100000200000100000,
200000000200000200200000200000000200000200200000,
100000000100000000200000200000000200000000100000,
100000000100000000200000200000000200000000000000,
000000000000100000000000100000000000200000000000,
100000000000100000000000400000000000400000000000,
9,
,
,
8,
100000000100000000100100100000000100000000100100,
100000000100000000100000100000000000000000000000,
100000000100000000100100100000000100000000100100,
100000000100000000100000200000000000000000000000,
100000000100000000200000100000000100000000200000,
300000000300000000300000300000000000000000200000,
000000100000100000100100000000100000100000100100,
000000100000100000100100000000000000000000200000,
000000100000100000100100000000100000100000100100,
000000100000100000100100000000000000000000200000,
000000100000100000100100000000000000000000200000,
000000100000100100000100000000000000300000000000,
300000000000000000100000200000000000000000100000,
200000000200000000200000200000000000000000000000,
200000200000200000200200200000200000200000200200,
200000200000200000200200200000200200000200200000,
200000200000200000200200200000200000200000200200,
200000200200200000200200200000200200200000000000,
200000000000100000000000200000100000100000100000,
200000000100100000000200200000000000100000200200,
200000100000100000200000100000100000100000200000,
500000000000000000000000000000000008000000000000,
000000000000000000000000000000000000000000000000,
#GOGOSTART
100000100100000000100000200000100000200000100000,
200000000200000200200000200000000200000200200000,
100000100100000000100000200000100000200000100000,
100000000000200000000000200000000200000000200000,
100000100100000000100000100000100100000000000000,
100000100100000000100000100000200200000000700000,
,
0800,
100000100100000000100000200000100000200000100000,
200000000200000200200000200000000200000200200000,
100000100100000000100000200000100000200000100000,
100000000000200000000000200000000200000000200000,
7,
8333,
30090000,
,
8,
100000000100000000100100100000000100000000100100,
100000000100000000100000100000000000000000000000,
300000000000000000000000400000000000000000000000,
300000000300000000300000300000000000000000000000,
#GOGOEND
#END
COURSE:Normal
LEVEL:4
BALLOON:11,35,15,11,18
SCOREINIT:910
SCOREDIFF:240
#START
1210,
1220,
1210
1220,
43,
7,
8112,
1144,
9,
,
,
8,
1122,
1120,
1122,
1120,
34,
3003003030000020,
0202,
00200022,
0202,
00200021,
00000021,
0003,
30022002,
20022000,
1212,
1100,
1212,
3344,
1212,
3344,
10101111,
500000000000000000000000000000000008000000000000,
,
#GOGOSTART
10201110,
1220,
10201110,
1220,
10101100,
20202207,
,
0800,
10201110,
1220,
10201110,
1220,
43,
7,
8333,
30090000,
,
8,
1122,
1120,
34,
3003003030000000,
#GOGOEND
#END
COURSE:Easy
LEVEL:3
BALLOON:9,28,13,9,16
SCOREINIT:830
SCOREDIFF:240
#START
100000000000100000000000100000000000000000000000,
100000000000000000000000200000000000000000000000,
100000000000100000000000100000000000000000000000,
100000000000000000000000200000000000000000500000,
000000000000000000000000000008000000000000700000,
00000008,
0111,
100000000000000000000000300000000000000000000000,
9,
,
,
8,
100000000000000000000000200000000000000000000000,
100000000000100000000000200000000000000000000000,
100000000000000000000000200000000000000000000000,
100000000000100000000000200000000000000000000000,
300000000000000000000000300000000000000000000000,
300000000000000000000000400000000000000000000000,
000000000000200000000000000000000000200000000000,
000000000000200000000000000000000000200000000000,
000000000000200000000000000000000000200000000000,
000000000000200000000000000000000000000000300000,
000000000000000000000000000000000000000000300000,
000000000000000000000000000000000000300000000000,
300000000000000000000000200000000000000000000000,
200000000000200000000000200000000000000000000000,
100000000000000000000000100000000000000000000000,
100000000000100000000000000000000000000000000000,
100000000000000000000000100000000000000000000000,
100000000000100000000000100000000000100000000000,
100000000000000000000000100000000000000000000000,
100000000000100000000000100000000000000000000000,
300000000000300000000000300000000000300000000000,
600000000000000000000000000000000008000000000000,
000000000000000000000000000000000000000000000000,
#GOGOSTART
100000000000100000000000100000000000000000000000,
100000000000000000000000200000000000000000000000,
100000000000100000000000100000000000100000000000,
100000000000000000000000200000000000000000000000,
100000000000100000000000100000000000000000000000,
200000000000200000000000200000000000000000700000,
,
0800,
100000000000100000000000100000000000000000000000,
100000000000000000000000200000000000000000000000,
100000000000100000000000100000000000100000000000,
100000000000000000000000200000000000000000500000,
000000000000000000000000000000000008000000000000,
7,
800000000000300000000000300000000000300000000000,
300000000000000000900000000000000000000000000000,
,
8,
100000000000000000000000200000000000000000000000,
100000000000100000000000200000000000000000000000,
100000000000000000000000200000000000000000000000,
300000000000000000000000400000000000000000000000,
#GOGOEND
#END