Files
ESE/02 Anime/Preserved Roses/Preserved Roses.tja
T
2023-06-15 19:15:39 -05:00

331 lines
13 KiB
Plaintext
Raw Blame History

This file contains ambiguous Unicode characters
This file contains Unicode characters that might be confused with other characters. If you think that this is intentional, you can safely ignore this warning. Use the Escape button to reveal them.
//TJADB Project
TITLE:Preserved Roses
TITLEJA:Preserved Roses
SUBTITLE:--T.M.Revolution × Nana Mizuki/Valvrave the Liberator
SUBTITLEJA:T.M.Revolution×水樹奈々「革命機ヴァルヴレイヴ」より
BPM:167
WAVE:Preserved Roses.ogg
OFFSET:-1.603
DEMOSTART:59.694
COURSE:Oni
LEVEL:7
SCOREINIT:700
SCOREDIFF:193
#START
200000100000100000100000100000000000200000100000,
100000100000100000000000000000000000000000000000,
200000100000100000100000100000000000200000100000,
000000000000000000000000000000000000000000000000,
100000000000000000000000100000000000000000000000,
100000000000000000000000000000000000000000000000,
100000000000000000000000100000000000000000100000,
000000000000000000000000200000000000200000000000,
100000000000000000000000100000000000000000000000,
100000000000000000000000000000000000000000000000,
300000000000000000000000000000000000000000000000,
000000000000000000000000000000000000400000100100,
100000000000200000300000300000000000200000300000,
300000000000300000000000300000000000300000000000,
300000300000300000300000100100100100100100100100,
100000200200100000100000200200100000100000200200,
100000100000200200100000100000200200100000200000,
200000100100200000200000100100200000200000100100,
200000200000100100200000200000100100200000000000,
100000100000200000100000100000100100200000100000,
000000100000200000100000000000100100200000100000,
000000200000100000200000000000100100200000100000,
000000100000200000100000100000000000400000000000,
100000200000100000200000100000200200100000200000,
000000200000100000200000000000200200100000200000,
000000100000200000100000000000200200100000200000,
000000200000100000200000100000000000400000000000,
100000100000200000100000100000200000200000100000,
100000100000200000100000000000200000200000000000,
100000200000100000200000100000200200200000100000,
100000200000100000200000100000200200200000000000,
100000100000200000100000100000200000200000100000,
100000100000200000100000000000200000200000100100,
100000100100200000100000100000200200200000100000,
000000100100200000100100100000200000000000200200,
100000100100200000100000100000200200200000100000,
000000200200100000200200200000200000000000200200,
100000100100200000100000100000200200200000100000,
000000100100200000100100100000200000000000000000,
200000100000100000100000100000000000200000100000,
000000000000000000000000300000000000400000000000,
#GOGOSTART
300000100100200000100000100000200200200000100000,
200000100100200000100000200000000000400000100100,
100000100100200000100000100000200200200000100000,
000000100100200000200200100000200000200000000000,
100000100100200000100000100000200200200000100000,
200000100100200000100000200000000000400000100100,
100000100100200000100000100000200200200000100000,
000000100100200000100000500000000000000008000000,
100000100100200000100000100000200200100000200000,
200000100100200000100000200000000000400000200200,
100000100100200000100000100000200200100000200000,
000000100100200000200200100000200000200000000000,
100000100100200000100000100000200200100000200000,
200000100100200000100000200000000000400000200200,
100000100100200000100000100000200000200000100000,
600000000000000000000008000000400000400000400000,
300000100100200000100000400000000400000000400000,
400000000000000000400000600000000000000000000000,
000000000000000000000000000000000000000000000000,
000000000000000000000000000000000000000000000000,
000000000000000000000000000000000000000000000008,
#GOGOEND
#END
COURSE:Hard
LEVEL:6
BALLOON:8
SCOREINIT:790
SCOREDIFF:238
#START
200000100000100000100000100000000000200000100000,
100000100000100000000000000000000000000000000000,
200000100000100000100000100000000000200000100000,
000000000000000000000000000000000000000000000000,
100000000000000000000000100000000000000000000000,
100000000000000000000000000000000000000000000000,
100000000000000000000000100000000000000000100000,
000000000000000000000000200000000000200000000000,
100000000000000000000000100000000000000000000000,
100000000000000000000000000000000000000000000000,
300000000000000000000000000000000000000000000000,
000000000000000000000000000000400000400000300000,
300000000000400000000000300000000300000000300000,
300000000000000000000000000000000000300000000000,
700000000000000000000000000000000000000000000008,
000000000000000000000000000000000000000000000000,
100000000000100000100000000000200000200000000000,
100000100000000000200000200000000000400000000000,
200000000000100000100000000000200000200000000000,
100000100000000000200000200000000000400000000000,
100000100000200000000000100000000000200000100000,
000000100000200000100000000000100000100000100000,
000000200000200000200000000000100100100000100000,
000000100000100000200000200000000000000000000000,
100000100000200000000000100000000000200000100000,
000000100000200000100000000000100000100000100000,
000000200000200000200000000000100100100000100000,
000000200000200000100000100000000000000000000000,
100000000000200000000000100000000000200000000000,
100000000000200000100000000000200000200000000000,
200000000000100000000000200000000000100000000000,
200000000000100000100000200000200000000000000000,
100000000000200000000000100000000000200000000000,
100000000000200000100000000000200000200000100000,
100000100000100000000000000000100000100000100000,
000000200000200000100000200000200000000000100000,
100000100000100000000000000000100000100000100000,
000000200200200000200000200000200000000000100000,
100000100000100000000000000000100000100000100000,
000000200000200000100000200000200000000000000000,
200000100000100000100000100000000000200000100000,
000000000000000000000000300000000000400000000000,
#GOGOSTART
300000000000200000100000000000100000200000100100,
100000000000200000000000100000000000200000100100,
100000000000200000100000000000100000200000100000,
000000100100100000100100100000200000200000000000,
100000000000200000100000000000100000200000100100,
100000000000200000000000100000000000200000100100,
100000000000200000100000000000100000200000100000,
000000200000200000200000500000000008000000000000,
300000000000200000100000000000200000200000100100,
100000000000200000000000100000000000200000100100,
100000000000200000100000000000100000200000100000,
000000200200200000100100100000200000200000000000,
300000000000200000100000000000200000200000100100,
100000000000200000000000100000000000200000100100,
100000000000200000000000100000100000200000200000,
500000000000000000000008000000400000400000300000,
300000000000400000000000300000000300000000300000,
300000000000000000300000600000000000000000000000,
000000000000000000000000000000000000000000000000,
000000000000000000000000000000000000000000000000,
000000000000000000000000000000000000000000000008,
#GOGOEND
#END
COURSE:Normal
LEVEL:6
BALLOON:6,18,5
SCOREINIT:1080
SCOREDIFF:360
#START
500000000000000000000000000000000000000000000000,
000000000000000000800000000000000000000000000000,
7,
8,
100000000000000000000000100000000000000000000000,
100000000000100000000000100000000000000000000000,
100000000000000000000000100000000000000000000000,
200000000000200000000000200000000000000000000000,
100000000000000000000000100000000000000000000000,
100000000000100000000000100000000000000000000000,
100000000000000000000000100000000000000000000000,
600000000000000000000000800000000000000000000000,
300000000000000000000000300000000000000000000000,
9,
,
8,
,
,
,
100000000000100000000000100000000000100000100000,
000000100000100000100000000000100000100000100000,
000000100000100000100000000000100000100000100000,
000000100000100000000000100000000000000000000000,
200000000000200000000000200000000000200000200000,
000000200000200000200000000000200000200000200000,
000000200000200000200000000000200000200000200000,
000000200000200000000000200000000000000000000000,
100000000000100000000000100000000000200000000000,
100000000000200000200000000000000000000000000000,
100000000000100000000000200000000000200000000000,
100000000000200000200000200000200000000000000000,
100000000000100000000000100000000000200000000000,
100000000000200000200000000000000000000000000000,
100000000000100000000000000000100000100000100000,
000000000000200000000000200000000000000000000000,
100000000000100000000000000000100000100000100000,
000000000000200000000000200000000000000000000000,
100000000000100000000000000000100000100000100000,
000000000000200000000000200000000000000000000000,
700000000000000000000000000000000000000000800000,
000000000000000000000000300000000000400000000000,
#GOGOSTART
300000000000100000100000000000100000100000000000,
200000000000200000000000200000000000000000000000,
100000000000100000100000000000200000000000100000,
000000100000100000000000200000000000000000000000,
100000000000100000100000000000100000100000000000,
200000000000200000000000200000000000000000000000,
100000000000100000100000000000200000000000100000,
000000100000100000000000200000000000000000000000,
300000000000100000100000000000100000100000100000,
100000000000200000000000200000000000000000000000,
100000000000100000100000000000200000000000100000,
000000100000100000000000200000000000000000000000,
300000000000100000100000000000100000100000100000,
100000000000200000000000200000000000000000000000,
100000000000200000000000100000100000100000000000,
500000000000000000000000800000000000000000000000,
300000000000400000000000300000000000000000000000,
400000000000000000400000600000000000000000000000,
000000000000000000000000000000000000000000000000,
000000000000000000000000000000000000000000000000,
000000000000000000000000000000000000000000000008,
#GOGOEND
#END
COURSE:Easy
LEVEL:3
BALLOON:5,15,5,15
SCOREINIT:790
SCOREDIFF:428
#START
500000000000000000000000000000000000000000000000,
000000000000000000800000000000000000000000000000,
7,
8,
300000000000000000000000000000000000000000000000,
300000000000000000000000000000000000000000000000,
300000000000000000000000300000000000000000000000,
300000000000000000000000300000000000000000000000,
300000000000000000000000000000000000000000000000,
300000000000000000000000000000000000000000000000,
300000000000000000000000300000000000000000000000,
600000000000000000000000800000000000000000000000,
300000000000000000000000300000000000000000000000,
9,
,
8,
000000000000000000000000000000000000000000000000,
000000000000000000000000000000000000000000000000,
000000000000000000000000000000000000000000000000,
100000000000100000000000100000000000000000000000,
100000000000000000000000100000000000000000000000,
100000000000000000000000000000000000000000000000,
100000000000100000000000200000000000000000000000,
200000000000200000000000200000000000000000000000,
200000000000000000000000200000000000000000000000,
200000000000000000000000000000000000000000000000,
200000000000200000000000100000000000000000000000,
100000000000000000000000100000000000000000000000,
200000000000000000000000000000000000000000000000,
200000000000000000000000200000000000000000000000,
100000000000000000000000000000000000000000000000,
100000000000000000000000100000000000000000000000,
200000000000000000000000000000000000000000000000,
100000000000100000000000000000000000100000000000,
000000000000100000000000100000000000000000000000,
100000000000100000000000000000000000200000000000,
000000000000200000000000200000000000000000000000,
100000000000100000000000000000000000100000000000,
000000000000100000000000100000000000000000000000,
700000000000000000000000000000000000000000800000,
000000000000000000000000300000000000300000000000,
#GOGOSTART
300000000000000000000000100000000000000000000000,
100000000000100000000000100000000000000000000000,
100000000000000000000000100000000000000000000000,
400000000000400000000000400000000000000000000000,
100000000000000000000000100000000000000000000000,
100000000000100000000000100000000000000000000000,
100000000000100000000000100000000000000000000000,
400000000000400000000000400000000000000000000000,
100000000000100000000000200000000000000000000000,
200000000000200000000000100000000000000000000000,
100000000000100000000000200000000000000000000000,
400000000000400000000000400000000000000000000000,
100000000000100000000000200000000000000000000000,
200000000000200000000000100000000000000000000000,
300000000000000000000000300000000000000000000000,
600000000000000000000000800000000000000000000000,
300000000000300000000000300000000000000000000000,
400000000000000000000000900000000000000000000000,
000000000000000000000000000000000000000000000000,
000000000000000000000000000000000000000000000000,
000000000000000000000000000000000000000000000008,
#GOGOEND
#END