399 lines
11 KiB
Plaintext
399 lines
11 KiB
Plaintext
//TJADB Project
|
|
TITLE:Promise
|
|
TITLEJA:Promise
|
|
SUBTITLE:--TiA/Yakitate‼ Japan
|
|
BPM:150
|
|
WAVE:Promise.ogg
|
|
OFFSET:-1.907
|
|
DEMOSTART:54.699
|
|
|
|
COURSE:Oni
|
|
LEVEL:7
|
|
BALLOON:7,7,7
|
|
SCOREINIT:650
|
|
SCOREDIFF:160
|
|
|
|
|
|
#START
|
|
|
|
|
|
1010202010102220,
|
|
11221220,
|
|
1010202010102220,
|
|
1011101110202220,
|
|
1010202010102220,
|
|
12211220,
|
|
1010202010102220,
|
|
1011101022022020,
|
|
1000201000112000,
|
|
1000201000221000,
|
|
1000201000112000,
|
|
10210220,
|
|
1000201000112000,
|
|
1000201000221000,
|
|
1000201000112000,
|
|
1000202220202020,
|
|
|
|
#SECTION
|
|
#BRANCHSTART p,75,90
|
|
#N
|
|
1020102000111010,
|
|
1110201000222020,
|
|
1020102000111020,
|
|
11210220,
|
|
1020102000111010,
|
|
1110201000222020,
|
|
1020102000112020,
|
|
1000202220000000,
|
|
|
|
#E
|
|
1020102000112020,
|
|
1020102000221000,
|
|
1020102000112020,
|
|
1010201000222020,
|
|
1020102000112020,
|
|
1020102000221000,
|
|
1020102000112020,
|
|
1000202220000000,
|
|
|
|
#M
|
|
1020102000112020,
|
|
1110201000221022,
|
|
1020102000112020,
|
|
1110201000222020,
|
|
1020102000112020,
|
|
1110201000221022,
|
|
1020102000112020,
|
|
1000202220000000,
|
|
|
|
#SECTION
|
|
#BRANCHSTART p,75,90
|
|
#N
|
|
300200222200,
|
|
111100200000,
|
|
300100111100,
|
|
10002022,
|
|
10121022,
|
|
10121022,
|
|
1011101010111010,
|
|
33333333,
|
|
40040210,
|
|
|
|
#E
|
|
300200222200,
|
|
111100200000,
|
|
300100111100,
|
|
20002022,
|
|
10121022,
|
|
10121022,
|
|
1011101010111010,
|
|
1110111011101111,
|
|
1000403000222020,
|
|
|
|
#M
|
|
111100222200,
|
|
111100400000,
|
|
222200111100,
|
|
200020002000200000000000300000000000200000200000,
|
|
1000102011102020,
|
|
1000102011102020,
|
|
1011202010112020,
|
|
1120112011201111,
|
|
1000403000222020,
|
|
|
|
#GOGOSTART
|
|
#SECTION
|
|
#BRANCHSTART p,75,90
|
|
#N
|
|
1000102011102020,
|
|
12011210,
|
|
1000102011102020,
|
|
12011120,
|
|
1010001110202000,
|
|
1010001110222000,
|
|
10121012,
|
|
7008,
|
|
|
|
#E
|
|
1000102011102020,
|
|
1010001011102000,
|
|
1000102011102020,
|
|
1010001022202000,
|
|
1010001110222000,
|
|
1010001110222020,
|
|
1011101010111010,
|
|
7008,
|
|
|
|
#M
|
|
1011202011102020,
|
|
1010201011101110,
|
|
1011202011102020,
|
|
1020201022202220,
|
|
1010201110222020,
|
|
1010201110222020,
|
|
1011101110112010,
|
|
7008,
|
|
|
|
#SECTION
|
|
#BRANCHSTART p,75,90
|
|
#N
|
|
1000102011102020,
|
|
12011210,
|
|
1000102011102020,
|
|
12011020,
|
|
1011101110002020,
|
|
1011101110002020,
|
|
1010222011102020,
|
|
1111102020222020,
|
|
5,
|
|
000000000000000000000000000000000008000000000000,
|
|
00003004,
|
|
3,
|
|
|
|
#E
|
|
1000102011102020,
|
|
1020001011102000,
|
|
1000102011102020,
|
|
1020001022202000,
|
|
1011101110222020,
|
|
1011101110002020,
|
|
1110111011101110,
|
|
1111102220202020,
|
|
3000300010111020,
|
|
0020002220201000,
|
|
30403004,
|
|
3,
|
|
|
|
#M
|
|
1011202011102020,
|
|
1010201011101110,
|
|
1011202011102020,
|
|
1020201022202220,
|
|
1101101011012020,
|
|
2202202022021010,
|
|
1120112011201120,
|
|
1111102220202020,
|
|
3000300010111020,
|
|
0020002220221000,
|
|
30403004,
|
|
3,
|
|
|
|
#BRANCHEND
|
|
#GOGOEND
|
|
|
|
|
|
#END
|
|
|
|
|
|
COURSE:Hard
|
|
LEVEL:6
|
|
BALLOON:5,12
|
|
SCOREINIT:920
|
|
SCOREDIFF:200
|
|
|
|
|
|
#START
|
|
|
|
|
|
100000000000100000000000100000100000200000000000,
|
|
100100100000200000200000100000000000000000000000,
|
|
100000000000100000000000100000100000200000200000,
|
|
100000100000200000200000100000000000000000000000,
|
|
100000000000100000000000100000100000200000000000,
|
|
100100100000200000200000100000000000000000000000,
|
|
100000000000100000000000100000100000200000200000,
|
|
100000100000200000200000100100000100100000000000,
|
|
100000000000200000100000000000100000200000000000,
|
|
100000000000200000100000000000200000200000000000,
|
|
100000000000200000100000000000100000200000000000,
|
|
100000100000200000100000000000200000200000000000,
|
|
100000000000200000100000000000100000200000000000,
|
|
100000000000200000100000000000200000200000000000,
|
|
100000000000200000100000000000100000200000000000,
|
|
100000000000200000100100100000000000000000000000,
|
|
100000200000200000100000000000100000200000000000,
|
|
100000200000200000100000000000200200200000000000,
|
|
100000200000200000100000000000100000200000000000,
|
|
100000100000200000100000000000200000200000000000,
|
|
100000200000200000100000000000100000200000000000,
|
|
100000200000200000100000000000200200200000000000,
|
|
100000200000200000100000000000100000200000000000,
|
|
100000000000200000100100100000000000000000000000,
|
|
300000000000000000100000100000000000200000000000,
|
|
100000100000100000000000100000000000000000000000,
|
|
400000000000000000200000200000000000200000000000,
|
|
200000000000000000000000000000000000100000000000,
|
|
100000000000100000100000100100100000100000000000,
|
|
100000000000100000100000100100100000100000000000,
|
|
100100100000200000000000100100100000200000000000,
|
|
100000100000100000100000100000100000100100100100,
|
|
100000000000000000300000000000000000000000000000,
|
|
#GOGOSTART
|
|
100000200000100000200000100000100000200000000000,
|
|
100000200000000000100000100000000000200000000000,
|
|
100000200000100000200000100000100000200000000000,
|
|
100000200000000000100000100000000000000000000000,
|
|
100000100000000000100000100000200000200000000000,
|
|
100000100000000000100000100000200000200000000000,
|
|
100000000000100000200000100000000000100000200000,
|
|
700000000000000000000000000000000800000000000000,
|
|
100000200000100000200000100000100000200000000000,
|
|
100000200000000000100000100000000000200000000000,
|
|
100000200000100000200000100000100000200000000000,
|
|
100000200000000000100000100000000000000000000000,
|
|
100000100000000000100000100000200000200000000000,
|
|
100000100000000000100000100000200000200000000000,
|
|
100100100000200000000000100100100000200000000000,
|
|
300000000000000000200200200000200000200000200000,
|
|
9,
|
|
,
|
|
800000000000000000000000300000000000000000400000,
|
|
300000000000000000000000000000000000000000000000,
|
|
#GOGOEND
|
|
|
|
|
|
#END
|
|
|
|
|
|
COURSE:Normal
|
|
LEVEL:4
|
|
BALLOON:6,5,11
|
|
SCOREINIT:900
|
|
SCOREDIFF:340
|
|
|
|
|
|
#START
|
|
|
|
|
|
#SCROLL 0.8
|
|
500000000000000000000000800000000000000000000000,
|
|
100000000000000000000000100000000000000000000000,
|
|
500000000000000000000000800000000000000000000000,
|
|
100000000000100000000000200000000000000000000000,
|
|
500000000000000000000000800000000000000000000000,
|
|
100000000000000000000000100000000000000000000000,
|
|
500000000000000000000000800000000000000000000000,
|
|
200000000000200000000000300000000000000000000000,
|
|
100000000000100000100000000000000000000000000000,
|
|
100000000000100000100000000000000000000000000000,
|
|
100000000000100000100000000000000000000000000000,
|
|
200000000000200000200000000000000000000000000000,
|
|
100000000000100000100000000000000000000000000000,
|
|
100000000000100000100000000000000000000000000000,
|
|
100000000000100000100000000000000000100000000000,
|
|
100000000000000000000000200000000000000000000000,
|
|
100000000000100000100000000000000000200000000000,
|
|
100000000000100000100000000000000000000000000000,
|
|
100000000000100000100000000000000000200000000000,
|
|
100000000000100000100000000000000000000000000000,
|
|
100000000000100000100000000000000000200000000000,
|
|
100000000000100000100000000000000000000000000000,
|
|
100000000000100000100000000000000000100000000000,
|
|
100000000000000000000000200000000000000000000000,
|
|
300000000000000000000000100000000000000000000000,
|
|
100000000000100000000000100000000000000000000000,
|
|
200000000000000000000000200000000000200000000000,
|
|
200000000000000000000000000000000000100000000000,
|
|
100000000000100000100000100000000000000000000000,
|
|
100000000000100000100000100000000000000000000000,
|
|
100000100000100000000000100000100000100000000000,
|
|
100000000000100000000000700000000000000000000000,
|
|
000000000000800000000000000000000000000000000000,
|
|
#GOGOSTART
|
|
100000000000100000000000100000000000200000000000,
|
|
100000000000100000000000100000000000000000000000,
|
|
100000000000100000000000100000000000200000000000,
|
|
100000000000100000000000100000000000000000000000,
|
|
100000000000000000100000100000000000200000000000,
|
|
100000000000000000100000100000000000000000000000,
|
|
300000000000300000000000300000000000300000000000,
|
|
700000000000000000000000800000000000000000000000,
|
|
100000000000100000000000100000000000200000000000,
|
|
100000000000100000000000100000000000000000000000,
|
|
100000000000100000000000100000000000200000000000,
|
|
100000000000100000000000100000000000000000000000,
|
|
100000000000000000100000100000000000200000000000,
|
|
100000000000000000100000100000000000000000000000,
|
|
100000000000100000000000100000000000100000000000,
|
|
100000000000000000000000200000000000200000000000,
|
|
9,
|
|
,
|
|
800000000000000000000000400000000000000000000000,
|
|
300000000000000000000000000000000000000000000000,
|
|
#GOGOEND
|
|
|
|
|
|
#END
|
|
|
|
|
|
COURSE:Easy
|
|
LEVEL:3
|
|
BALLOON:4,3,6
|
|
SCOREINIT:880
|
|
SCOREDIFF:360
|
|
|
|
|
|
#START
|
|
|
|
|
|
#SCROLL 0.8
|
|
500000000000000000000000800000000000000000000000,
|
|
100000000000000000000000100000000000000000000000,
|
|
500000000000000000000000800000000000000000000000,
|
|
100000000000100000000000100000000000000000000000,
|
|
500000000000000000000000800000000000000000000000,
|
|
100000000000000000000000100000000000000000000000,
|
|
500000000000000000000000800000000000000000000000,
|
|
200000000000200000000000200000000000000000000000,
|
|
100000000000000000000000000000000000000000000000,
|
|
100000000000000000000000000000000000000000000000,
|
|
100000000000000000000000100000000000000000000000,
|
|
100000000000100000000000100000000000000000000000,
|
|
100000000000000000000000000000000000000000000000,
|
|
100000000000000000000000000000000000000000000000,
|
|
100000000000000000000000100000000000000000000000,
|
|
100000000000100000000000100000000000000000000000,
|
|
100000000000000000000000000000000000200000000000,
|
|
100000000000000000000000000000000000200000000000,
|
|
100000000000000000000000100000000000000000000000,
|
|
200000000000200000000000200000000000000000000000,
|
|
100000000000000000000000000000000000200000000000,
|
|
100000000000000000000000000000000000200000000000,
|
|
100000000000000000000000100000000000000000000000,
|
|
200000000000200000000000200000000000000000000000,
|
|
300000000000000000000000000000000000000000000000,
|
|
100000000000100000000000100000000000000000000000,
|
|
200000000000000000000000200000000000200000000000,
|
|
200000000000000000000000000000000000000000000000,
|
|
100000000000000000000000200000000000000000000000,
|
|
100000000000000000000000200000000000000000000000,
|
|
100000000000000000000000100000000000000000000000,
|
|
100000000000100000000000700000000000000000000000,
|
|
000000000000800000000000000000000000000000000000,
|
|
#GOGOSTART
|
|
100000000000000000000000100000000000000000000000,
|
|
100000000000100000000000100000000000000000000000,
|
|
100000000000000000000000100000000000000000000000,
|
|
100000000000100000000000100000000000000000000000,
|
|
100000000000000000000000200000000000000000000000,
|
|
100000000000000000000000200000000000000000000000,
|
|
300000000000300000000000300000000000300000000000,
|
|
700000000000000000000000800000000000000000000000,
|
|
100000000000000000000000100000000000000000000000,
|
|
100000000000100000000000100000000000000000000000,
|
|
100000000000000000000000100000000000000000000000,
|
|
100000000000100000000000100000000000000000000000,
|
|
100000000000000000000000200000000000000000000000,
|
|
100000000000000000000000200000000000000000000000,
|
|
100000000000000000000000100000000000100000000000,
|
|
100000000000000000000000200000000000200000000000,
|
|
9,
|
|
,
|
|
800000000000000000000000300000000000000000000000,
|
|
300000000000000000000000000000000000000000000000,
|
|
#GOGOEND
|
|
|
|
|
|
#END
|
|
|