389 lines
13 KiB
Plaintext
389 lines
13 KiB
Plaintext
//TJADB Project
|
||
TITLE:The Other Self
|
||
TITLEJA:The Other self
|
||
SUBTITLE:--GRANRODEO/Kuroko’s Basketball
|
||
SUBTITLEJA:「黒子のバスケ」より
|
||
BPM:151.44
|
||
WAVE:The Other Self.ogg
|
||
OFFSET:-1.976
|
||
DEMOSTART:53.036
|
||
|
||
COURSE:Oni
|
||
LEVEL:8
|
||
SCOREINIT:650
|
||
SCOREDIFF:178
|
||
|
||
|
||
#START
|
||
|
||
|
||
100100100100000000000000000000000000100100100100,
|
||
#BPMCHANGE 149.53
|
||
#SCROLL 1.01
|
||
000000000000000000000000000000100000200000000000,
|
||
#BPMCHANGE 149.19
|
||
100000200100000100200000100000200000000000200000,
|
||
#BPMCHANGE 149.26
|
||
100000200100000100200000100000100000000000200000,
|
||
#BPMCHANGE 151.51
|
||
#SCROLL 0.99
|
||
100000200200000200200000000000200000100000200000,
|
||
#BPMCHANGE 150.84
|
||
#SCROLL 1
|
||
100000200200000100100000500000000000000008000000,
|
||
#BPMCHANGE 151.29
|
||
100000200100000100200000100000200000000000200000,
|
||
#BPMCHANGE 148.92
|
||
#SCROLL 1.01
|
||
100000200100000100200000100000100000000000200000,
|
||
#BPMCHANGE 148.52
|
||
300000000000100000100000100000100000100000100000,
|
||
#BPMCHANGE 150.68
|
||
#SCROLL 1
|
||
200000100100100100200000100100100100200000000000,
|
||
#BPMCHANGE 151.58
|
||
#SCROLL 0.99
|
||
100100100200100100200000000000002020200000300000,
|
||
#BPMCHANGE 149.07
|
||
#SCROLL 1.01
|
||
000000000000000000000000000000100000200000200200,
|
||
#BPMCHANGE 150
|
||
#SCROLL 1
|
||
100000200100100000200100100000200100100000200000,
|
||
100000200100100000200100100000200100000100200000,
|
||
100000200100100000200100100000200100100000200000,
|
||
100000200100100000200100100000200100000100200000,
|
||
#BPMCHANGE 150.67
|
||
100000200100100000200100100000200100100000200000,
|
||
#BPMCHANGE 149.34
|
||
#SCROLL 1.01
|
||
100000200100100000200000200200200100100000000000,
|
||
#BPMCHANGE 149.58
|
||
100100100200100100200000000000002020200000300000,
|
||
#BPMCHANGE 150.43
|
||
#SCROLL 1
|
||
000000000000000000000000000000001010101010101010,
|
||
#BPMCHANGE 150
|
||
100000200100100000200100100000200100100000200000,
|
||
#BPMCHANGE 150.19
|
||
100000200100100000200100100000200100000100200000,
|
||
#BPMCHANGE 149.8
|
||
#SCROLL 1.01
|
||
100000200100100000200100100000200100100000200000,
|
||
#BPMCHANGE 149.39
|
||
100000200100100000200100100000200100000100200000,
|
||
#BPMCHANGE 149.93
|
||
100000200100000100200000100000200100000100200000,
|
||
#BPMCHANGE 152.14
|
||
#SCROLL 0.99
|
||
100000200100000100200000100200200200100100100100,
|
||
#BPMCHANGE 146.48
|
||
#SCROLL 1.03
|
||
100000000100000000100000000000100000200000200200,
|
||
#BPMCHANGE 150.89
|
||
#SCROLL 1
|
||
100000000100000000100000000000100200200200000000,
|
||
#BPMCHANGE 150.75
|
||
100000000100000000100000000000200200200200100100,
|
||
#BPMCHANGE 151.86
|
||
#SCROLL 0.99
|
||
200000000200000000200000200200200200100100100200,
|
||
#BPMCHANGE 148.74
|
||
#SCROLL 1.01
|
||
100000000100000000100000000000100000200200200200,
|
||
#BPMCHANGE 149.51
|
||
100000000100000000100000100100100100200200200200,
|
||
#BPMCHANGE 150.49
|
||
#SCROLL 1
|
||
100000200000100100200000100000200100000100200000,
|
||
#BPMCHANGE 150
|
||
100000200000100100200000100000200100000100200000,
|
||
#BPMCHANGE 147.57
|
||
#SCROLL 1.02
|
||
300000000400000000300000300000000400000000300000,
|
||
#BPMCHANGE 150.75
|
||
#SCROLL 1
|
||
300000000300000000400000300000000000200200200200,
|
||
|
||
#GOGOSTART
|
||
#BPMCHANGE 153.69
|
||
#SCROLL 0.98
|
||
100000200100000100200000100000200000100100200000,
|
||
#BPMCHANGE 148.14
|
||
#SCROLL 1.02
|
||
100000200100000100200000100000100000200200100000,
|
||
#BPMCHANGE 150
|
||
#SCROLL 1
|
||
100000200200100000200100000100200000100000200000,
|
||
#BPMCHANGE 149.51
|
||
#SCROLL 1.01
|
||
100000200100000100200000100000200000000200200200,
|
||
#BPMCHANGE 150.49
|
||
#SCROLL 1
|
||
100000200200100000200100000100200000100100200000,
|
||
#BPMCHANGE 150.46
|
||
100000200200100000200100000100200000100100200000,
|
||
#BPMCHANGE 148.72
|
||
#SCROLL 1.01
|
||
300000000300000000400000300000000300000000400000,
|
||
#BPMCHANGE 151.03
|
||
#SCROLL 1
|
||
300000000400000000400000600000000008000000000000,
|
||
#BPMCHANGE 151.17
|
||
100000200100000100200000100000200000100100200000,
|
||
#BPMCHANGE 148.67
|
||
#SCROLL 1.01
|
||
100000200100000100200000100000100000200200100000,
|
||
#BPMCHANGE 150
|
||
#SCROLL 1
|
||
100000200200100000200100000100200000100000200000,
|
||
#BPMCHANGE 151.7
|
||
#SCROLL 0.99
|
||
100000500000000000000008000000100000100000100000,
|
||
#BPMCHANGE 151.17
|
||
#SCROLL 1
|
||
100100200000100000200100000100200000100000200000,
|
||
#BPMCHANGE 147
|
||
#SCROLL 1.03
|
||
100100200000100000200100000100200000100000200000,
|
||
#BPMCHANGE 151.86
|
||
#SCROLL 0.99
|
||
100100200000100000200100000100200000000000100000,
|
||
|
||
#GOGOEND
|
||
#BPMCHANGE 147.26
|
||
#SCROLL 1.02
|
||
300000000000000000000000000000100000200000000000,
|
||
#BPMCHANGE 150.07
|
||
#SCROLL 1
|
||
100000000100000000200000100000000100000000200000,
|
||
#BPMCHANGE 151.72
|
||
#SCROLL 0.99
|
||
100000200200200200100000200200200200100000600000,
|
||
#BPMCHANGE 150
|
||
#SCROLL 1
|
||
000000000000000000000000000000000000000008000000,
|
||
|
||
|
||
#END
|
||
|
||
|
||
COURSE:Hard
|
||
LEVEL:6
|
||
BALLOON:6,6
|
||
SCOREINIT:740
|
||
SCOREDIFF:213
|
||
|
||
|
||
#START
|
||
|
||
|
||
#BPMCHANGE 150
|
||
100100100100000000000000000000000000100100100100,
|
||
000000000000000000000000000000000000000000000000,
|
||
100000100100000000100000100000200000000000200000,
|
||
100000100100000000100000100000200000000000200000,
|
||
100000100100000000100000000000200000100000200000,
|
||
100000000100000000100000500000000000000800000000,
|
||
100000100100000000100000100000200000000000200000,
|
||
100000100100000000100000100000200000000000000000,
|
||
100000000200000000200000100000000200000000200000,
|
||
300000000000000000300000000000000000300000000000,
|
||
700000000000000000000000000000000000000800000000,
|
||
000000000000000000000000000000100000200000000000,
|
||
100000200000100000200000100000200000000000200000,
|
||
100000100000100100100000100000200000000000200000,
|
||
100000200000100000200000100000200000000000200000,
|
||
100000100000100100100000100000200000000000200000,
|
||
100000100100100000100100100000100100100000000000,
|
||
100000100100100000100000200000200200200000000000,
|
||
700000000000000000000000000000000000000800000000,
|
||
000000000000000000000000000000000000000000000000,
|
||
100000200000100000200000100000200000000000200000,
|
||
100000100000100100100000100000200000000000200000,
|
||
100000200000100000200000100000200000000000200000,
|
||
100000100100100000100100100000100100100000000000,
|
||
100000100100100000100000200000200200200000200000,
|
||
100000000000000000000000200200200200200000000000,
|
||
300000000300000000300000000000000000200000200000,
|
||
300000000300000000300000000000000000200000200000,
|
||
300000000300000000600000000000000800000000000000,
|
||
400000000400000000400000000000000000000000000000,
|
||
300000000300000000300000000000000000200000200000,
|
||
300000000300000000300000000000000000000000000000,
|
||
100000000100000000100000200000000200000000200000,
|
||
100000000100000000100000200000000200000000200000,
|
||
300000000400000000300000300000000400000000300000,
|
||
300000000300000000400000300000000000000000000000,
|
||
#GOGOSTART
|
||
100000100100000000100000100000200000000000200000,
|
||
100000100100000000100000100000200000000000200000,
|
||
100000200200000000200000100000100100100000100000,
|
||
100000200000000000200000500000000800000000000000,
|
||
100000200000100000200200000000200000100000200000,
|
||
100000100100000000500000000800000000000000000000,
|
||
300000000300000000400000300000000300000000400000,
|
||
300000000400000000400000600000000800000000000000,
|
||
100000100100000000100000100000200000000000200000,
|
||
100000100100000000100000100000200000000000200000,
|
||
100000200000100000200200000000200000000000200000,
|
||
000000500000000000000800000000100000100000100000,
|
||
100100100000100000200000000000200000000000000000,
|
||
200000000200000000200000000000100000100000100000,
|
||
100100100000100000200000000000200000000000000000,
|
||
#GOGOEND
|
||
300000000000000000000000000000000000000000000000,
|
||
100000000200000000200000100000000200000000200000,
|
||
300000000000000000300000000000000000300000600000,
|
||
000000000000000000000000000000000000000800000000,
|
||
|
||
|
||
#END
|
||
|
||
|
||
COURSE:Normal
|
||
LEVEL:4
|
||
BALLOON:4,5
|
||
SCOREINIT:1140
|
||
SCOREDIFF:513
|
||
|
||
|
||
#START
|
||
|
||
|
||
#BPMCHANGE 150
|
||
300000000000000000000000000000000000300000000000,
|
||
000000000000000000000000000000000000000000000000,
|
||
100000000000100000000000100000000000000000000000,
|
||
100000000000100000000000100000000000000000000000,
|
||
100000000000100000000000100000100000100000000000,
|
||
500000000000000000000000000800000000000000000000,
|
||
100000000000100000000000100000000000000000000000,
|
||
100000000000100000000000100000000000000000000000,
|
||
500000000000000000000000000000000800000000000000,
|
||
200000000000000000200000000000000000200000000000,
|
||
90000008,
|
||
,
|
||
100000000000000000000000100000000000100000000000,
|
||
100000000000000000000000200000000000000000000000,
|
||
100000000000000000000000100000000000100000000000,
|
||
100000000000000000000000200000000000000000000000,
|
||
100000000000100000000000100000000000100000000000,
|
||
100000000000000000200000200000000000000000000000,
|
||
90000008,
|
||
,
|
||
100000000000000000000000200000000000200000000000,
|
||
200000000000000000000000200000000000000000000000,
|
||
200000000000000000000000100000000000100000000000,
|
||
100000000000000000000000200000000000000000000000,
|
||
100000000000100000000000100000000000100000500000,
|
||
000000000000000000000800000000000000000000000000,
|
||
300000000000000000300000000000000000000000000000,
|
||
300000000000000000300000000000000000000000000000,
|
||
300000000000000000600000000000000800000000000000,
|
||
400000000000000000400000000000000000000000000000,
|
||
300000000000000000300000000000000000000000000000,
|
||
300000000000000000300000000000000000000000000000,
|
||
100000000000000000100000500000000800000000000000,
|
||
100000000000000000100000500000000800000000000000,
|
||
300000000000000000000000300000000000000000000000,
|
||
300000000000000000300000300000000000000000000000,
|
||
#GOGOSTART
|
||
100000000000100000100000000000100000000000000000,
|
||
100000000000100000100000000000100000000000000000,
|
||
100000000000000000100000000000200000200000200000,
|
||
500000000000000000000000000800000000000000000000,
|
||
100000000000100000100000000000100000100000000000,
|
||
200000000000000000200000000000000000000000000000,
|
||
300000000300000000000000300000000300000000000000,
|
||
600000000000000000000000000800000000000000000000,
|
||
100000000000100000100000000000100000000000000000,
|
||
100000000000100000100000000000100000000000000000,
|
||
200000000000200000200000000000200000000000200000,
|
||
500000000000000000000800000000000000000000000000,
|
||
100000000000000000100000000000100000000000000000,
|
||
200000000000000000200000000000200000000000000000,
|
||
100000000000000000100000000000100000000000000000,
|
||
#GOGOEND
|
||
300000000000000000000000000000000000000000000000,
|
||
100000000000000000000000100000000000000000000000,
|
||
300000000000000000300000000000000000300000600000,
|
||
000000000000000000000000000000000000000800000000,
|
||
|
||
|
||
#END
|
||
|
||
|
||
COURSE:Easy
|
||
LEVEL:3
|
||
BALLOON:3,3,3,3
|
||
SCOREINIT:960
|
||
SCOREDIFF:558
|
||
|
||
|
||
#START
|
||
|
||
|
||
#BPMCHANGE 150
|
||
300000000000000000000000000000000000300000000000,
|
||
000000000000000000000000000000000000000000000000,
|
||
100000000000100000000000100000000000000000000000,
|
||
100000000000100000000000100000000000000000000000,
|
||
100000000000100000000000100000000000100000000000,
|
||
500000000000000000000000000800000000000000000000,
|
||
100000000000100000000000100000000000000000000000,
|
||
100000000000100000000000100000000000000000000000,
|
||
500000000000000000000000000000000000000000000000,
|
||
000000000000000000000000000000000800000000000000,
|
||
90000008,
|
||
,
|
||
100000000000000000000000100000000000100000000000,
|
||
100000000000000000000000100000000000000000000000,
|
||
100000000000000000000000100000000000100000000000,
|
||
100000000000000000000000100000000000000000000000,
|
||
100000000000100000000000100000000000000000000000,
|
||
100000000000000000000000200000000000000000000000,
|
||
90000008,
|
||
,
|
||
100000000000000000000000200000000000200000000000,
|
||
200000000000000000000000200000000000000000000000,
|
||
200000000000000000000000100000000000100000000000,
|
||
100000000000000000000000100000000000000000000000,
|
||
100000000000100000000000100000000000000000500000,
|
||
000000000000000000000800000000000000000000000000,
|
||
300000000000000000000000400000000000000000000000,
|
||
300000000000000000000000400000000000000000000000,
|
||
600000000000000000000000000000000800000000000000,
|
||
000000000000000000000000000000000000000000000000,
|
||
300000000000000000000000400000000000000000000000,
|
||
300000000000000000000000400000000000000000000000,
|
||
700000000000000000000000000000000800000000000000,
|
||
700000000000000000000000000000000800000000000000,
|
||
300000000000000000000000300000000000000000000000,
|
||
600000000000000000000800000000000000000000000000,
|
||
#GOGOSTART
|
||
100000000000100000000000100000000000000000000000,
|
||
100000000000100000000000100000000000000000000000,
|
||
100000000000100000000000100000000000100000000000,
|
||
500000000000000000000000000800000000000000000000,
|
||
200000000000200000000000200000000000000000000000,
|
||
200000000000200000000000200000000000000000000000,
|
||
300000000000000000000000300000000000000000000000,
|
||
600000000000000000000000000800000000000000000000,
|
||
100000000000100000000000100000000000000000000000,
|
||
100000000000100000000000100000000000000000000000,
|
||
200000000000200000000000200000000000000000000000,
|
||
500000000000000000000800000000000000000000000000,
|
||
100000000000000000100000000000000000000000000000,
|
||
200000000000000000200000000000000000000000000000,
|
||
100000000000000000100000000000000000000000000000,
|
||
#GOGOEND
|
||
300000000000000000000000000000000000000000000000,
|
||
100000000000000000000000100000000000000000000000,
|
||
300000000000000000300000000000000000600000000000,
|
||
000000000000000000000000000000000000000800000000,
|
||
|
||
|
||
#END
|
||
|