345 lines
13 KiB
Plaintext
345 lines
13 KiB
Plaintext
//TJADB Project
|
||
TITLE:Tougenkyou Alien
|
||
TITLEJA:桃源郷エイリアン
|
||
SUBTITLE:--serial TV drama/Gintama’
|
||
SUBTITLEJA:「銀魂」より
|
||
BPM:170
|
||
WAVE:Tougenkyou Alien.ogg
|
||
OFFSET:-1.623
|
||
DEMOSTART:56.528
|
||
|
||
COURSE:Oni
|
||
LEVEL:6
|
||
BALLOON:6,6,6
|
||
SCOREINIT:580
|
||
SCOREDIFF:150
|
||
|
||
|
||
#START
|
||
|
||
|
||
#GOGOSTART
|
||
100000001000000000001000100000001000000000001000,
|
||
100000001000200000001000100000001000200000000000,
|
||
100000001000000000001000100000001000000000001000,
|
||
200000002000100000001000200000002000100000000000,
|
||
100000001000000000001000100000001000000000001000,
|
||
100000001000200000001000100000001000200000000000,
|
||
100000001000000000001000100000000000200000000000,
|
||
100010001000200010001000200010001000200010001000,
|
||
|
||
#GOGOEND
|
||
100000000000100000002000100000002000100000002000,
|
||
100000002000100000000000400000000000400000000000,
|
||
100000000000100000002000100000002000100000000000,
|
||
300000000000300000000000400000000000400000000000,
|
||
100000000000100000002000100000002000100000002000,
|
||
100000002000100000000000400000000000400000000000,
|
||
100000000000100000002000100000002000100000000000,
|
||
300000000000300000000000100010001000100010001000,
|
||
100000001000000000001000100000001000000000001000,
|
||
100000001000200000001000100000001000200000000000,
|
||
100000001000000000001000100000000000200000000000,
|
||
100010001000200010001000200010001000200010001000,
|
||
100000002000100000002000100000002000100000002000,
|
||
100000002000100000000000400000000000400000000000,
|
||
100000002000100000002000100000002000100000000000,
|
||
300000000000300000000000400000000000400000000000,
|
||
100000002000100000002000100000002000100000002000,
|
||
100000002000100000000000400000000000400000000000,
|
||
100000002000100000002000100000002000100000000000,
|
||
300000000000300000000000100010001000100010001000,
|
||
500000000000000000000000000008000000000000000000,
|
||
100010001000200000002000100010001000200000002000,
|
||
500000000000000000000000000008000000000000000000,
|
||
100020002000200000002000100020002000200000000000,
|
||
500000000000000000000000000008000000000000000000,
|
||
100010001000200000002000100010001000200000002000,
|
||
500000000000000000000000000008000000000000000000,
|
||
300000000000400000000000300000000000400000000000,
|
||
300000000000400000000000300000000000400000000000,
|
||
100010001000100000000000100010001000100000000000,
|
||
100010001000200010001000200010001000100000000000,
|
||
|
||
#GOGOSTART
|
||
100100100000200000100000200000100000200000100000,
|
||
100100100000200000100000200000100000200000100000,
|
||
100100100000200000000000100100100000200000000000,
|
||
700000000000000000000000800000000000000000000000,
|
||
100100100000200000100000200000100000200000100000,
|
||
100100100000200000100000200000100000200000100000,
|
||
100100100000200000000000100100100000200000000000,
|
||
700000000000000000000000800000000000000000000000,
|
||
100100100000200000100100200000100000200000100000,
|
||
100100100000200000100100200000100000200000100000,
|
||
100100100000200000100000100100100000200000000000,
|
||
700000000000000000000000800000000000000000000000,
|
||
100100100000200000100100200000100000200000100000,
|
||
100100100000200000100100200000100000200000100000,
|
||
100100100000200000100000100100100000200000000000,
|
||
300000000000300000000000400000000000400000000000,
|
||
100010001000200010001000200010001000100000000000,
|
||
|
||
#GOGOEND
|
||
100010001000200000000000100010002000200000000000,
|
||
400000000000400000000000300000000000300000000000,
|
||
100010001000200000000000100010002000200000000000,
|
||
400000000000400000000000300000000000300000000000,
|
||
100010002000200000000000100020002000200000000000,
|
||
400000000000400000000000300000000000300000000000,
|
||
300000000000000000000000300000000000000000000000,
|
||
300000000000000000000000000000000000000000000000,
|
||
|
||
|
||
#END
|
||
|
||
|
||
COURSE:Hard
|
||
LEVEL:5
|
||
BALLOON:8,5,5,5
|
||
SCOREINIT:900
|
||
SCOREDIFF:290
|
||
|
||
|
||
#START
|
||
|
||
|
||
#GOGOSTART
|
||
100000000000100000001000100000000000000000000000,
|
||
100000000000100000000000100000000000100000000000,
|
||
100000000000100000001000100000000000000000000000,
|
||
100000000000200000000000100000000000200000000000,
|
||
100000000000100000001000100000000000000000000000,
|
||
100000000000100000000000100000000000100000000000,
|
||
100000000000100000001000100000000000000000000000,
|
||
500000000000000000000000800000000000000000000000,
|
||
#GOGOEND
|
||
100000000000100000000000100000000000100000000000,
|
||
100000001000100000000000400000000000400000000000,
|
||
100000000000100000000000100000000000100000000000,
|
||
300000000000300000000000400000000000400000000000,
|
||
100000000000100000000000100000000000100000000000,
|
||
100000001000100000000000400000000000400000000000,
|
||
100000000000100000000000100000000000100000000000,
|
||
300000000000300000000000400000000000400000000000,
|
||
9,
|
||
8,
|
||
000000000000000000000000000000000000000000000000,
|
||
500000000000000000000000800000000000000000000000,
|
||
100000000000200000000000100000000000200000000000,
|
||
100000001000100000000000400000000000400000000000,
|
||
100000000000200000000000100000000000200000000000,
|
||
300000000000300000000000400000000000400000000000,
|
||
100000000000200000000000100000000000200000000000,
|
||
100000001000100000000000400000000000400000000000,
|
||
100000000000200000000000100000000000200000000000,
|
||
300000000000300000000000400000000000400000000000,
|
||
500000000000000000000000800000000000000000000000,
|
||
100000000000200000000000000000000000200000000000,
|
||
500000000000000000000000800000000000000000000000,
|
||
100000000000200000000000000000000000200000000000,
|
||
500000000000000000000000800000000000000000000000,
|
||
100000000000200000000000000000000000200000000000,
|
||
500000000000000000000000800000000000000000000000,
|
||
300000000000400000000000300000000000400000000000,
|
||
300000000000400000000000300000000000400000000000,
|
||
600000000000000000000000800000000000000000000000,
|
||
300000000000000000000000000000000000000000000000,
|
||
#GOGOSTART
|
||
100000000000100000000000100000100000100000000000,
|
||
100000000000100000000000100000100000100000000000,
|
||
100000000000200000000000100000100000200000000000,
|
||
700000000000000000800000000000000000000000000000,
|
||
100000000000100000000000100000100000100000000000,
|
||
100000000000100000000000100000100000100000000000,
|
||
100000000000200000000000100000100000200000000000,
|
||
700000000000000000800000000000000000000000000000,
|
||
100000000000100000000000100100100000100000000000,
|
||
100000000000100000000000100100100000100000000000,
|
||
100000000000200000000000100000100000200000000000,
|
||
700000000000000000000800000000000000000000000000,
|
||
100000000000100000000000100100100000100000000000,
|
||
100000000000100000000000100100100000100000000000,
|
||
100000000000200000000000100000100000200000000000,
|
||
300000000000300000000000400000000000400000000000,
|
||
600000000000000000000000000800000000000000000000,
|
||
#GOGOEND
|
||
100000001000100000000000100000001000100000000000,
|
||
200000000000200000000000100000000000100000000000,
|
||
100000001000100000000000100000001000100000000000,
|
||
200000000000200000000000100000000000100000000000,
|
||
100000001000100000000000100000001000100000000000,
|
||
200000000000200000000000100000000000100000000000,
|
||
300000000000000000000000300000000000000000000000,
|
||
300000000000000000000000000000000000000000000000,
|
||
|
||
|
||
#END
|
||
|
||
|
||
COURSE:Normal
|
||
LEVEL:4
|
||
BALLOON:7
|
||
SCOREINIT:920
|
||
SCOREDIFF:355
|
||
|
||
|
||
#START
|
||
|
||
|
||
#GOGOSTART
|
||
100000000000000000000000100000000000000000000000,
|
||
100000000000100000000000100000000000100000000000,
|
||
100000000000000000000000100000000000000000000000,
|
||
500000000000000000000000800000000000000000000000,
|
||
100000000000000000000000100000000000000000000000,
|
||
100000000000100000000000100000000000100000000000,
|
||
100000000000000000000000100000000000000000000000,
|
||
500000000000000000000000800000000000000000000000,
|
||
#GOGOEND
|
||
100000000000100000000000100000000000000000000000,
|
||
100000000000100000000000200000000000000000000000,
|
||
100000000000100000000000100000000000000000000000,
|
||
100000000000100000000000200000000000200000000000,
|
||
100000000000100000000000100000000000000000000000,
|
||
100000000000100000000000200000000000000000000000,
|
||
100000000000100000000000100000000000000000000000,
|
||
300000000000300000000000400000000000400000000000,
|
||
9,
|
||
8,
|
||
000000000000000000000000000000000000000000000000,
|
||
500000000000000000000000800000000000000000000000,
|
||
100000000000100000000000100000000000000000000000,
|
||
100000000000100000000000200000000000200000000000,
|
||
100000000000100000000000100000000000000000000000,
|
||
100000000000100000000000200000000000200000000000,
|
||
100000000000100000000000100000000000000000000000,
|
||
100000000000100000000000200000000000200000000000,
|
||
100000000000100000000000100000000000000000000000,
|
||
300000000000300000000000400000000000400000000000,
|
||
500000000000000000000000800000000000000000000000,
|
||
400000000000000000000000000000000000000000000000,
|
||
500000000000000000000000800000000000000000000000,
|
||
300000000000000000000000000000000000000000000000,
|
||
600000000000000000000000800000000000000000000000,
|
||
400000000000000000000000000000000000000000000000,
|
||
600000000000000000000000800000000000000000000000,
|
||
300000000000000000000000400000000000000000000000,
|
||
300000000000000000000000400000000000000000000000,
|
||
600000000000000000000000800000000000000000000000,
|
||
300000000000000000000000000000000000000000000000,
|
||
#GOGOSTART
|
||
100000000000100000000000100000100000100000000000,
|
||
100000000000100000000000100000100000100000000000,
|
||
100000000000100000000000100000000000000000000000,
|
||
300000000000000000000000000000000000000000000000,
|
||
100000000000100000000000100000100000100000000000,
|
||
100000000000100000000000100000100000100000000000,
|
||
100000000000100000000000100000000000000000000000,
|
||
300000000000000000000000000000000000000000000000,
|
||
100000000000100000000000100000100000100000000000,
|
||
100000000000100000000000100000100000100000000000,
|
||
100000000000200000000000100000000000200000000000,
|
||
300000000000000000000000000000000000000000000000,
|
||
100000000000100000000000100000100000100000000000,
|
||
100000000000100000000000100000100000100000000000,
|
||
300000000000400000000000300000000000400000000000,
|
||
600000000000000000000000000000000000000000800000,
|
||
000000000000000000000000000000000000000000000000,
|
||
#GOGOEND
|
||
100000000000000000000000100000000000000000000000,
|
||
200000000000200000000000100000000000100000000000,
|
||
100000000000000000000000100000000000000000000000,
|
||
200000000000200000000000100000000000100000000000,
|
||
100000000000000000000000100000000000000000000000,
|
||
200000000000200000000000100000000000100000000000,
|
||
300000000000000000000000300000000000000000000000,
|
||
300000000000000000000000000000000000000000000000,
|
||
|
||
|
||
#END
|
||
|
||
|
||
COURSE:Easy
|
||
LEVEL:3
|
||
BALLOON:6
|
||
SCOREINIT:740
|
||
SCOREDIFF:325
|
||
|
||
|
||
#START
|
||
|
||
|
||
#GOGOSTART
|
||
100000000000000000000000100000000000000000000000,
|
||
100000000000100000000000100000000000000000000000,
|
||
100000000000000000000000100000000000000000000000,
|
||
500000000000000000000000800000000000000000000000,
|
||
100000000000000000000000100000000000000000000000,
|
||
100000000000100000000000100000000000000000000000,
|
||
100000000000000000000000100000000000000000000000,
|
||
500000000000000000000000800000000000000000000000,
|
||
#GOGOEND
|
||
100000000000000000000000100000000000000000000000,
|
||
100000000000000000000000200000000000000000000000,
|
||
100000000000000000000000100000000000000000000000,
|
||
100000000000100000000000100000000000100000000000,
|
||
100000000000000000000000100000000000000000000000,
|
||
100000000000000000000000200000000000000000000000,
|
||
100000000000000000000000100000000000000000000000,
|
||
100000000000100000000000100000000000100000000000,
|
||
9,
|
||
8,
|
||
000000000000000000000000000000000000000000000000,
|
||
500000000000000000000000800000000000000000000000,
|
||
100000000000000000000000100000000000000000000000,
|
||
100000000000000000000000200000000000200000000000,
|
||
100000000000000000000000100000000000000000000000,
|
||
100000000000100000000000100000000000100000000000,
|
||
100000000000000000000000100000000000000000000000,
|
||
100000000000000000000000200000000000200000000000,
|
||
100000000000000000000000100000000000000000000000,
|
||
100000000000100000000000100000000000100000000000,
|
||
500000000000000000000000800000000000000000000000,
|
||
300000000000000000000000000000000000000000000000,
|
||
500000000000000000000000800000000000000000000000,
|
||
300000000000000000000000000000000000000000000000,
|
||
600000000000000000000000800000000000000000000000,
|
||
300000000000000000000000000000000000000000000000,
|
||
600000000000000000000000800000000000000000000000,
|
||
300000000000000000000000300000000000000000000000,
|
||
300000000000000000000000300000000000000000000000,
|
||
600000000000000000000000000000000000800000000000,
|
||
000000000000000000000000000000000000000000000000,
|
||
#GOGOSTART
|
||
100000000000000000000000100000000000000000000000,
|
||
100000000000100000000000100000000000000000000000,
|
||
100000000000100000000000100000000000100000000000,
|
||
300000000000000000000000000000000000000000000000,
|
||
100000000000000000000000100000000000000000000000,
|
||
100000000000100000000000100000000000000000000000,
|
||
100000000000100000000000100000000000100000000000,
|
||
300000000000000000000000000000000000000000000000,
|
||
100000000000100000000000100000000000000000000000,
|
||
100000000000100000000000100000000000000000000000,
|
||
100000000000100000000000100000000000100000000000,
|
||
300000000000000000000000000000000000000000000000,
|
||
100000000000100000000000100000000000000000000000,
|
||
100000000000100000000000100000000000000000000000,
|
||
300000000000300000000000300000000000300000000000,
|
||
600000000000000000000000000000000000800000000000,
|
||
000000000000000000000000000000000000000000000000,
|
||
#GOGOEND
|
||
100000000000000000000000100000000000000000000000,
|
||
200000000000200000000000200000000000000000000000,
|
||
100000000000000000000000100000000000000000000000,
|
||
200000000000200000000000200000000000000000000000,
|
||
100000000000000000000000100000000000000000000000,
|
||
200000000000200000000000200000000000000000000000,
|
||
300000000000000000000000300000000000000000000000,
|
||
300000000000000000000000000000000000000000000000,
|
||
|
||
|
||
#END
|
||
|