678 lines
18 KiB
Plaintext
678 lines
18 KiB
Plaintext
//TJADB Project
|
||
TITLE:Ultraman no Uta
|
||
TITLEJA:ウルトラマンの歌
|
||
SUBTITLE:--Misuzu Children’s Choral Group/Ultraman
|
||
BPM:117.47
|
||
WAVE:Ultraman no Uta.ogg
|
||
OFFSET:-2.302
|
||
DEMOSTART:9.969
|
||
|
||
COURSE:Oni
|
||
LEVEL:6
|
||
SCOREINIT:970
|
||
SCOREDIFF:210
|
||
|
||
|
||
#START
|
||
|
||
|
||
#SCROLL 1.08
|
||
000000000000100010002000
|
||
#BPMCHANGE 122.36
|
||
#SCROLL 1.04
|
||
100000000000200020001000,
|
||
#BPMCHANGE 127.66
|
||
#SCROLL 1
|
||
200000000000200020001000
|
||
#BPMCHANGE 122.36
|
||
#SCROLL 1.04
|
||
500000000008000000000000,
|
||
#BPMCHANGE 125.42
|
||
#SCROLL 1.01
|
||
300000100000200000200000
|
||
#BPMCHANGE 129.9
|
||
#SCROLL 0.98
|
||
100000100000200200200000,
|
||
#BPMCHANGE 128.19
|
||
#SCROLL 0.99
|
||
200000100000100000200000100000100000200200200000,
|
||
#BPMCHANGE 128.64
|
||
100000100000000000100000100000000000200000100000,
|
||
#BPMCHANGE 128
|
||
100000000000000000100000100000200200200000000000,
|
||
#BPMCHANGE 128.48
|
||
100000100000200000200000100000000000100000000000,
|
||
#BPMCHANGE 129.23
|
||
#SCROLL 0.98
|
||
500000000000000000000000000008000000000000000000,
|
||
#BPMCHANGE 126.61
|
||
#SCROLL 1
|
||
100000100000000000100000100000000000200000100000,
|
||
#BPMCHANGE 128.73
|
||
#SCROLL 0.99
|
||
100000000000000000100000100000200200200000000000,
|
||
#BPMCHANGE 127.99
|
||
100000100000200000200000100000000000100000000000,
|
||
#BPMCHANGE 127.34
|
||
#SCROLL 1
|
||
500000000000000000000000000008000000000000000000,
|
||
#BPMCHANGE 129.4
|
||
#SCROLL 0.98
|
||
100000100000200000200000100000100000200000200000,
|
||
#BPMCHANGE 129.15
|
||
100000000100200000100000200000200000100000000000,
|
||
|
||
#GOGOSTART
|
||
#BPMCHANGE 126.33
|
||
#SCROLL 1.01
|
||
100000000000000000100000100000000000100000000100,
|
||
#BPMCHANGE 128.24
|
||
#SCROLL 0.99
|
||
100000000000200000100000100000200000100000000000,
|
||
#BPMCHANGE 127.3
|
||
#SCROLL 1
|
||
500000000000000008000000100000000000100000000000,
|
||
#BPMCHANGE 128.81
|
||
#SCROLL 0.99
|
||
600000000000000000000008000000000000000000000000,
|
||
|
||
#GOGOEND
|
||
#BPMCHANGE 127.01
|
||
#SCROLL 1
|
||
100000100000000000200000100000100000000000200000,
|
||
#BPMCHANGE 128.15
|
||
#SCROLL 0.99
|
||
100000100000000000200000100000100000000000100000,
|
||
#BPMCHANGE 126.61
|
||
#SCROLL 1
|
||
200020001000200020001000200020001000200020001000,
|
||
#BPMCHANGE 124.64
|
||
#SCROLL 1.02
|
||
600000000000000000000000000008000000000000000000,
|
||
#BPMCHANGE 122.51
|
||
#SCROLL 1.04
|
||
300000000000100000200000
|
||
#BPMCHANGE 128.65
|
||
#SCROLL 0.99
|
||
100000100000200200200000,
|
||
#BPMCHANGE 126.06
|
||
#SCROLL 1.01
|
||
200000100000100000200000100000100000200200200000,
|
||
#BPMCHANGE 127.99
|
||
#SCROLL 0.99
|
||
100000100000000000200000100000000000200000100000,
|
||
100000000000000000200000100000200200200000000000,
|
||
#BPMCHANGE 127.18
|
||
#SCROLL 1
|
||
100000100000200000200000100000100000100000000000,
|
||
500000000000000000000000000008000000000000000000,
|
||
#BPMCHANGE 126.73
|
||
100000100000000000200000100000000000200000100000,
|
||
#BPMCHANGE 127.44
|
||
100000000000000000200000100000200200200000000000,
|
||
#BPMCHANGE 125.29
|
||
#SCROLL 1.01
|
||
100000100000200000200000100000000000100000000000,
|
||
#BPMCHANGE 129.31
|
||
#SCROLL 0.98
|
||
500000000000000000000000000008000000000000000000,
|
||
#BPMCHANGE 128.48
|
||
#SCROLL 0.99
|
||
100000100000200000200000100000100000200200200000,
|
||
#BPMCHANGE 128.98
|
||
#SCROLL 0.98
|
||
100000000100200000100000200200200000100000000000,
|
||
|
||
#GOGOSTART
|
||
#BPMCHANGE 125.11
|
||
#SCROLL 1.02
|
||
100000000000000000100000100000000000100000000100,
|
||
#BPMCHANGE 128.4
|
||
#SCROLL 0.99
|
||
100000000000200000000000100000200000100000000000,
|
||
#BPMCHANGE 126.41
|
||
#SCROLL 1
|
||
500000000000000008000000100000000000100000000000,
|
||
#BPMCHANGE 126.1
|
||
#SCROLL 1.01
|
||
600000000000000000000008000000000000000000000000,
|
||
|
||
#GOGOEND
|
||
#BPMCHANGE 126.53
|
||
#SCROLL 1
|
||
100000100000000000200000100000100000000000200000,
|
||
#BPMCHANGE 127.66
|
||
100000100000000000200000100000100000000000100000,
|
||
#BPMCHANGE 125.11
|
||
#SCROLL 1.02
|
||
200020001000200020001000200020001000200020001000,
|
||
#BPMCHANGE 123.72
|
||
#SCROLL 1.03
|
||
600000000000000000000000000008000000000000000000,
|
||
#BPMCHANGE 126.45
|
||
#SCROLL 1
|
||
300000000000000000000000100000100000200200200000,
|
||
200000100000100000200000100000100000200200200000,
|
||
#BPMCHANGE 127.5
|
||
100000100000000000100000100000000000200000100000,
|
||
#BPMCHANGE 128.15
|
||
#SCROLL 0.99
|
||
100000000000000000100000100000000000200000000000,
|
||
#BPMCHANGE 127.34
|
||
#SCROLL 1
|
||
100000100000200000200000100000000000100000000000,
|
||
500000000000000000000000000008000000000000000000,
|
||
#BPMCHANGE 127.01
|
||
100000100000000000100000100000000000200000100000,
|
||
#BPMCHANGE 127.34
|
||
100000000000000000100000100000000000200000000000,
|
||
100000100000200000200000100000000000100000000000,
|
||
#BPMCHANGE 128.32
|
||
#SCROLL 0.99
|
||
500000000000000000000000000008000000000000000000,
|
||
#BPMCHANGE 127.83
|
||
100000100000200200200000100000100000200200200000,
|
||
#BPMCHANGE 129.82
|
||
#SCROLL 0.98
|
||
100000000100200000100000200000200000100000000000,
|
||
|
||
#GOGOSTART
|
||
#BPMCHANGE 125.11
|
||
#SCROLL 1.02
|
||
100000000000000000100000100000000000100000000100,
|
||
#BPMCHANGE 128.15
|
||
#SCROLL 0.99
|
||
100000000000200000000000100000200000100000000000,
|
||
#BPMCHANGE 127.99
|
||
500000000000000008000000300000000000300000000000,
|
||
#BPMCHANGE 128.38
|
||
600000000000000000000008000000000000000000000000,
|
||
|
||
#GOGOEND
|
||
#BPMCHANGE 118.19
|
||
#SCROLL 1.08
|
||
300000000000100010001000
|
||
#BPMCHANGE 124.88
|
||
#SCROLL 1.02
|
||
100000000000200020002000,
|
||
#MEASURE 6/4
|
||
#BPMCHANGE 111.89
|
||
#SCROLL 1.14
|
||
700000000000000000000000
|
||
#BPMCHANGE 124.49
|
||
#SCROLL 1.02
|
||
000000000000000000000000000000000000800000000000,
|
||
#MEASURE 4/4
|
||
#BPMCHANGE 110.96
|
||
#SCROLL 1.15
|
||
400000300000000000000000000000000000000000000000,
|
||
|
||
|
||
#END
|
||
|
||
|
||
COURSE:Hard
|
||
LEVEL:4
|
||
BALLOON:10,10
|
||
SCOREINIT:900
|
||
SCOREDIFF:210
|
||
|
||
|
||
#START
|
||
|
||
|
||
000000000000700000000000
|
||
#BPMCHANGE 122.36
|
||
000000000000000000000000,
|
||
#BPMCHANGE 127.67
|
||
000000000000000000000000
|
||
#BPMCHANGE 122.36
|
||
000000800000000000000000,
|
||
#BPMCHANGE 125.43
|
||
300000000000100000200000
|
||
#BPMCHANGE 129.9
|
||
100000000000200000100000,
|
||
#BPMCHANGE 128.2
|
||
100000000000100000200000100000000000200000000000,
|
||
#BPMCHANGE 128.64
|
||
100000100000000000100000100000000000200000100000,
|
||
#BPMCHANGE 128
|
||
100000000000000000100000100000000000200000000000,
|
||
#BPMCHANGE 128.49
|
||
100000000000000000100000100000000000100000000000,
|
||
#BPMCHANGE 129.23
|
||
500000000000000000000000800000000000000000000000,
|
||
#BPMCHANGE 126.62
|
||
100000100000000000100000100000000000200000100000,
|
||
#BPMCHANGE 128.73
|
||
100000000000000000100000100000000000200000000000,
|
||
#BPMCHANGE 127.99
|
||
100000000000000000100000100000000000100000000000,
|
||
#BPMCHANGE 127.34
|
||
500000000000000000000000800000000000000000000000,
|
||
#BPMCHANGE 129.4
|
||
100000100000100000000000100000100000100000000000,
|
||
#BPMCHANGE 129.15
|
||
100000000100100000000000100000100000100000000000,
|
||
|
||
#GOGOSTART
|
||
#BPMCHANGE 126.34
|
||
100000000000000000100000100000000000100000000100,
|
||
#BPMCHANGE 128.24
|
||
100000000000200000000000100000200000100000000000,
|
||
#BPMCHANGE 127.3
|
||
500000000000000800000000100000000000100000000000,
|
||
#BPMCHANGE 128.82
|
||
600000000000000000000800000000000000000000000000,
|
||
|
||
#GOGOEND
|
||
#BPMCHANGE 127.02
|
||
100000100000000000100000100000100000000000100000,
|
||
#BPMCHANGE 128.16
|
||
200000200000000000200000200000200000000000200000,
|
||
#BPMCHANGE 126.62
|
||
300000000000300000000000300000000000300000000000,
|
||
#BPMCHANGE 124.65
|
||
600000000000000000000000800000000000000000000000,
|
||
#BPMCHANGE 122.51
|
||
300000000000000000000000
|
||
#BPMCHANGE 128.65
|
||
100000100000200000000000,
|
||
#BPMCHANGE 126.06
|
||
200000100000100000000000100000100000200000000000,
|
||
#BPMCHANGE 127.99
|
||
100000100000000000100000100000000000200000100000,
|
||
100000000000000000100000100000000000200000000000,
|
||
#BPMCHANGE 127.18
|
||
100000000000000000100000100000000000100000000000,
|
||
500000000000000000000000800000000000000000000000,
|
||
#BPMCHANGE 126.74
|
||
100000100000000000100000100000000000200000100000,
|
||
#BPMCHANGE 127.44
|
||
100000000000000000100000100000000000200000000000,
|
||
#BPMCHANGE 125.29
|
||
100000000000000000100000100000000000100000000000,
|
||
#BPMCHANGE 129.32
|
||
500000000000000000000000800000000000000000000000,
|
||
#BPMCHANGE 128.49
|
||
100000100000100000000000100000100000100000000000,
|
||
#BPMCHANGE 128.98
|
||
100000000100100000000000100000100000100000000000,
|
||
|
||
#GOGOSTART
|
||
#BPMCHANGE 125.11
|
||
100000000000000000100000100000000000100000000100,
|
||
#BPMCHANGE 128.4
|
||
100000000000200000000000100000200000100000000000,
|
||
#BPMCHANGE 126.42
|
||
500000000000000800000000100000000000100000000000,
|
||
#BPMCHANGE 126.1
|
||
600000000000000000000800000000000000000000000000,
|
||
|
||
#GOGOEND
|
||
#BPMCHANGE 126.54
|
||
100000100000000000100000200000200000000000200000,
|
||
#BPMCHANGE 127.67
|
||
100000100000000000100000200000200000000000200000,
|
||
#BPMCHANGE 125.11
|
||
300000000000300000000000300000000000300000000000,
|
||
#BPMCHANGE 123.72
|
||
600000000000000000000000000800000000000000000000,
|
||
#BPMCHANGE 126.46
|
||
300000000000000000000000100000100000200000000000,
|
||
100000100000200000000000100000100000200000000000,
|
||
#BPMCHANGE 127.5
|
||
100000100000000000100000100000000000200000100000,
|
||
#BPMCHANGE 128.16
|
||
100000000000000000100000100000000000200000000000,
|
||
#BPMCHANGE 127.34
|
||
100000000000000000100000100000000000100000000000,
|
||
500000000000000000000000800000000000000000000000,
|
||
#BPMCHANGE 127.02
|
||
100000100000000000100000100000000000200000100000,
|
||
#BPMCHANGE 127.34
|
||
100000000000000000100000100000000000200000000000,
|
||
100000000000000000100000100000000000100000000000,
|
||
#BPMCHANGE 128.32
|
||
500000000000000000000000800000000000000000000000,
|
||
#BPMCHANGE 127.83
|
||
100000100000100000000000100000100000100000000000,
|
||
#BPMCHANGE 129.82
|
||
100000000100100000000000100000100000100000000000,
|
||
|
||
#GOGOSTART
|
||
#BPMCHANGE 125.11
|
||
100000000000000000100000100000000000100000000100,
|
||
#BPMCHANGE 128.16
|
||
100000000000200000000000100000200000100000000000,
|
||
#BPMCHANGE 127.99
|
||
500000000000000800000000100000000000100000000000,
|
||
#BPMCHANGE 128.39
|
||
600000000000000000000800000000000000000000000000,
|
||
|
||
#GOGOEND
|
||
#BPMCHANGE 118.2
|
||
300000000000100010001000
|
||
#BPMCHANGE 124.88
|
||
100000000000200020002000,
|
||
#MEASURE 6/4
|
||
#BPMCHANGE 111.9
|
||
700000000000000000000000
|
||
#BPMCHANGE 124.49
|
||
000000000000000000000000000000000800000000000000,
|
||
#MEASURE 4/4
|
||
#BPMCHANGE 110.96
|
||
400000300000000000000000000000000000000000000000,
|
||
|
||
|
||
#END
|
||
|
||
|
||
COURSE:Normal
|
||
LEVEL:4
|
||
BALLOON:8,8
|
||
SCOREINIT:1100
|
||
SCOREDIFF:300
|
||
|
||
|
||
#START
|
||
|
||
|
||
000000000000700000000000
|
||
#BPMCHANGE 122.36
|
||
000000000000000000000000,
|
||
#BPMCHANGE 127.67
|
||
000000000000000000000000
|
||
#BPMCHANGE 122.36
|
||
000000800000000000000000,
|
||
#BPMCHANGE 125.43
|
||
300000000000100000000000
|
||
#BPMCHANGE 129.9
|
||
100000000000000000000000,
|
||
#BPMCHANGE 128.2
|
||
100000000000100000000000100000000000000000000000,
|
||
#BPMCHANGE 128.64
|
||
100000000000000000100000100000000000000000000000,
|
||
#BPMCHANGE 128
|
||
100000000000000000100000100000000000000000000000,
|
||
#BPMCHANGE 128.49
|
||
100000000000000000000000100000000000100000000000,
|
||
#BPMCHANGE 129.23
|
||
500000000000000000000000800000000000000000000000,
|
||
#BPMCHANGE 126.62
|
||
100000000000000000100000100000000000000000000000,
|
||
#BPMCHANGE 128.73
|
||
100000000000000000100000100000000000000000000000,
|
||
#BPMCHANGE 127.99
|
||
100000000000000000000000100000000000100000000000,
|
||
#BPMCHANGE 127.34
|
||
500000000000000000000000800000000000000000000000,
|
||
#BPMCHANGE 129.4
|
||
100000100000100000000000100000100000100000000000,
|
||
#BPMCHANGE 129.15
|
||
100000000000100000000000100000100000100000000000,
|
||
|
||
#GOGOSTART
|
||
#BPMCHANGE 126.34
|
||
100000000000000000100000100000000000100000000000,
|
||
#BPMCHANGE 128.24
|
||
100000000000000000000000100000000000100000000000,
|
||
#BPMCHANGE 127.3
|
||
500000000000000800000000100000000000100000000000,
|
||
#BPMCHANGE 128.82
|
||
600000000000000000000800000000000000000000000000,
|
||
|
||
#GOGOEND
|
||
#BPMCHANGE 127.02
|
||
300000000000000000000000000000000000000000000000,
|
||
#BPMCHANGE 128.16
|
||
300000000000000000000000000000000000000000000000,
|
||
#BPMCHANGE 126.62
|
||
300000000000300000000000300000000000300000000000,
|
||
#BPMCHANGE 124.65
|
||
600000000000000000000000800000000000000000000000,
|
||
#BPMCHANGE 122.51
|
||
300000000000000000000000
|
||
#BPMCHANGE 128.65
|
||
000000000000000000000000,
|
||
#BPMCHANGE 126.06
|
||
000000000000000000000000000000000000000000000000,
|
||
#BPMCHANGE 127.99
|
||
100000000000000000100000200000000000000000000000,
|
||
100000000000000000100000200000000000000000000000,
|
||
#BPMCHANGE 127.18
|
||
100000000000000000000000100000000000200000000000,
|
||
500000000000000000000000800000000000000000000000,
|
||
#BPMCHANGE 126.74
|
||
100000000000000000200000200000000000000000000000,
|
||
#BPMCHANGE 127.44
|
||
100000000000000000200000200000000000000000000000,
|
||
#BPMCHANGE 125.29
|
||
100000000000000000000000100000000000200000000000,
|
||
#BPMCHANGE 129.32
|
||
500000000000000000000000800000000000000000000000,
|
||
#BPMCHANGE 128.49
|
||
100000100000100000000000100000100000100000000000,
|
||
#BPMCHANGE 128.98
|
||
100000000000200000000000100000100000100000000000,
|
||
|
||
#GOGOSTART
|
||
#BPMCHANGE 125.11
|
||
100000000000000000100000100000000000100000000000,
|
||
#BPMCHANGE 128.4
|
||
100000000000000000000000100000000000100000000000,
|
||
#BPMCHANGE 126.42
|
||
500000000000000800000000100000000000100000000000,
|
||
#BPMCHANGE 126.1
|
||
600000000000000000000800000000000000000000000000,
|
||
|
||
#GOGOEND
|
||
#BPMCHANGE 126.54
|
||
300000000000000000000000000000000000000000000000,
|
||
#BPMCHANGE 127.67
|
||
300000000000000000000000000000000000000000000000,
|
||
#BPMCHANGE 125.11
|
||
300000000000300000000000300000000000300000000000,
|
||
#BPMCHANGE 123.72
|
||
600000000000000000000000000800000000000000000000,
|
||
#BPMCHANGE 126.46
|
||
300000000000000000000000000000000000000000000000,
|
||
000000000000000000000000000000000000000000000000,
|
||
#BPMCHANGE 127.5
|
||
100000000000000000100000200000000000000000100000,
|
||
#BPMCHANGE 128.16
|
||
100000000000000000100000200000000000000000000000,
|
||
#BPMCHANGE 127.34
|
||
100000000000000000100000100000000000200000000000,
|
||
500000000000000000000000800000000000000000000000,
|
||
#BPMCHANGE 127.02
|
||
100000000000000000200000200000000000000000100000,
|
||
#BPMCHANGE 127.34
|
||
100000000000000000200000200000000000000000000000,
|
||
100000000000000000100000100000000000200000000000,
|
||
#BPMCHANGE 128.32
|
||
500000000000000000000000800000000000000000000000,
|
||
#BPMCHANGE 127.83
|
||
100000100000100000000000100000100000100000000000,
|
||
#BPMCHANGE 129.82
|
||
100000000000200000000000100000100000100000000000,
|
||
|
||
#GOGOSTART
|
||
#BPMCHANGE 125.11
|
||
100000000000000000100000100000000000100000000100,
|
||
#BPMCHANGE 128.16
|
||
100000000000000000000000100000000000100000000000,
|
||
#BPMCHANGE 127.99
|
||
500000000000000800000000100000000000100000000000,
|
||
#BPMCHANGE 128.39
|
||
600000000000000000000800000000000000000000000000,
|
||
|
||
#GOGOEND
|
||
#BPMCHANGE 118.2
|
||
300000000000000000000000
|
||
#BPMCHANGE 124.88
|
||
000000000000000000000000,
|
||
#MEASURE 6/4
|
||
#BPMCHANGE 111.9
|
||
700000000000000000000000
|
||
#BPMCHANGE 124.49
|
||
000000000000000000000000000000000800000000000000,
|
||
|
||
|
||
#END
|
||
|
||
|
||
COURSE:Easy
|
||
LEVEL:2
|
||
BALLOON:6,6
|
||
SCOREINIT:980
|
||
SCOREDIFF:320
|
||
|
||
|
||
#START
|
||
|
||
|
||
000000000000700000000000
|
||
#BPMCHANGE 122.36
|
||
000000000000000000000000,
|
||
#BPMCHANGE 127.67
|
||
000000000000000000000000
|
||
#BPMCHANGE 122.36
|
||
000000800000000000000000,
|
||
#BPMCHANGE 125.43
|
||
300000000000000000000000
|
||
#BPMCHANGE 129.9
|
||
000000000000000000000000,
|
||
#BPMCHANGE 128.2
|
||
000000000000000000000000000000000000000000000000,
|
||
#BPMCHANGE 128.64
|
||
100000000000000000000000100000000000000000000000,
|
||
#BPMCHANGE 128
|
||
100000000000000000000000100000000000000000000000,
|
||
#BPMCHANGE 128.49
|
||
100000000000000000000000100000000000100000000000,
|
||
#BPMCHANGE 129.23
|
||
500000000000000000000000800000000000000000000000,
|
||
#BPMCHANGE 126.62
|
||
100000000000000000000000100000000000000000000000,
|
||
#BPMCHANGE 128.73
|
||
100000000000000000000000100000000000000000000000,
|
||
#BPMCHANGE 127.99
|
||
100000000000000000000000100000000000100000000000,
|
||
#BPMCHANGE 127.34
|
||
500000000000000000000000800000000000000000000000,
|
||
#BPMCHANGE 129.4
|
||
100000000000000000000000100000000000000000000000,
|
||
#BPMCHANGE 129.15
|
||
100000000000100000000000100000000000000000000000,
|
||
|
||
#GOGOSTART
|
||
#BPMCHANGE 126.34
|
||
100000000000000000000000100000000000100000000000,
|
||
#BPMCHANGE 128.24
|
||
100000000000000000000000000000000000100000000000,
|
||
#BPMCHANGE 127.3
|
||
100000000000000000000000100000000000100000000000,
|
||
#BPMCHANGE 128.82
|
||
600000000000000000000800000000000000000000000000,
|
||
|
||
#GOGOEND
|
||
#BPMCHANGE 127.02
|
||
300000000000000000000000000000000000000000000000,
|
||
#BPMCHANGE 128.16
|
||
300000000000000000000000000000000000000000000000,
|
||
#BPMCHANGE 126.62
|
||
300000000000000000000000300000000000000000000000,
|
||
#BPMCHANGE 124.65
|
||
600000000000000000000000800000000000000000000000,
|
||
#BPMCHANGE 122.51
|
||
300000000000000000000000
|
||
#BPMCHANGE 128.65
|
||
000000000000000000000000,
|
||
#BPMCHANGE 126.06
|
||
000000000000000000000000000000000000000000000000,
|
||
#BPMCHANGE 127.99
|
||
100000000000000000000000100000000000000000000000,
|
||
100000000000000000000000100000000000000000000000,
|
||
#BPMCHANGE 127.18
|
||
200000000000000000000000200000000000200000000000,
|
||
500000000000000000000000800000000000000000000000,
|
||
#BPMCHANGE 126.74
|
||
100000000000000000000000100000000000000000000000,
|
||
#BPMCHANGE 127.44
|
||
100000000000000000000000100000000000000000000000,
|
||
#BPMCHANGE 125.29
|
||
200000000000000000000000200000000000200000000000,
|
||
#BPMCHANGE 129.32
|
||
500000000000000000000000800000000000000000000000,
|
||
#BPMCHANGE 128.49
|
||
100000000000000000000000100000000000000000000000,
|
||
#BPMCHANGE 128.98
|
||
100000000000100000000000100000000000000000000000,
|
||
|
||
#GOGOSTART
|
||
#BPMCHANGE 125.11
|
||
100000000000000000000000100000000000100000000000,
|
||
#BPMCHANGE 128.4
|
||
100000000000000000000000000000000000100000000000,
|
||
#BPMCHANGE 126.42
|
||
100000000000000000000000100000000000100000000000,
|
||
#BPMCHANGE 126.1
|
||
600000000000000000000800000000000000000000000000,
|
||
|
||
#GOGOEND
|
||
#BPMCHANGE 126.54
|
||
300000000000000000000000000000000000000000000000,
|
||
#BPMCHANGE 127.67
|
||
300000000000000000000000000000000000000000000000,
|
||
#BPMCHANGE 125.11
|
||
300000000000000000000000300000000000000000000000,
|
||
#BPMCHANGE 123.72
|
||
600000000000000000000000000800000000000000000000,
|
||
#BPMCHANGE 126.46
|
||
300000000000000000000000000000000000000000000000,
|
||
000000000000000000000000000000000000000000000000,
|
||
#BPMCHANGE 127.5
|
||
100000000000000000000000200000000000000000000000,
|
||
#BPMCHANGE 128.16
|
||
100000000000000000000000200000000000000000000000,
|
||
#BPMCHANGE 127.34
|
||
100000000000000000000000100000000000100000000000,
|
||
500000000000000000000000800000000000000000000000,
|
||
#BPMCHANGE 127.02
|
||
100000000000000000000000200000000000000000000000,
|
||
#BPMCHANGE 127.34
|
||
100000000000000000000000200000000000000000000000,
|
||
100000000000000000000000100000000000100000000000,
|
||
#BPMCHANGE 128.32
|
||
500000000000000000000000800000000000000000000000,
|
||
#BPMCHANGE 127.83
|
||
100000000000000000000000200000000000000000000000,
|
||
#BPMCHANGE 129.82
|
||
100000000000100000000000200000000000000000000000,
|
||
|
||
#GOGOSTART
|
||
#BPMCHANGE 125.11
|
||
100000000000000000000000100000000000100000000000,
|
||
#BPMCHANGE 128.16
|
||
100000000000000000000000000000000000100000000000,
|
||
#BPMCHANGE 127.99
|
||
100000000000000000000000100000000000100000000000,
|
||
#BPMCHANGE 128.39
|
||
600000000000000000000800000000000000000000000000,
|
||
|
||
#GOGOEND
|
||
#BPMCHANGE 118.2
|
||
300000000000000000000000
|
||
#BPMCHANGE 124.88
|
||
000000000000000000000000,
|
||
#MEASURE 6/4
|
||
#BPMCHANGE 111.9
|
||
700000000000000000000000
|
||
#BPMCHANGE 124.49
|
||
000000000000000000000000000000000800000000000000,
|
||
|
||
|
||
#END
|
||
|