Files
ESE/02 Anime/V.I.P/V.I.P..tja
T
2023-06-15 19:15:39 -05:00

326 lines
4.2 KiB
Plaintext
Raw Blame History

This file contains ambiguous Unicode characters
This file contains Unicode characters that might be confused with other characters. If you think that this is intentional, you can safely ignore this warning. Use the Escape button to reveal them.
//TJADB Project
TITLE:V.I.P.
TITLEJA:V.I.P
SUBTITLE:--SID/Magi: The Labyrinth of Magic
SUBTITLEJA:「マギ」より
BPM:185
WAVE:V.I.P..ogg
OFFSET:-1.721
DEMOSTART:57.653
COURSE:Oni
LEVEL:6
SCOREINIT:790
SCOREDIFF:233
#START
00000003,
03003300,
3,
34,
30000011,
01210221,
02021011,
01210221,
02021000,
500000000000000000000000000000000000000000000008,
00011011,
01201120,
11221122,
01102203,
04040330,
10201120,
11221122,
01201120,
11221122,
1000201000222010,
1000201000222010,
1000202011102020,
1110201110202000,
10201120,
11221122,
01201120,
11221122,
1000201000222010,
1000201000222010,
1000202011102020,
1110201110202000,
1000201110002011,
1000201110200010,
1000201110002011,
1000201110222010,
1000201110002011,
1000201110200010,
1000201110002011,
1444,
1000201110002011,
1000201110222030,
03300004,
04400000,
#GOGOSTART
00000003,
0010200011102010,
0010201110002010,
0010200011102010,
0010201110002010,
01210121,
0010201110222010,
01210121,
0022201022202030,
03003300,
3,
34,
30000011,
01210221,
02021011,
01210221,
02021000,
500000000000000000000000000000000000000000000008,
00033036,
000000000000000000000000000008000000000000300000,
#END
COURSE:Hard
LEVEL:4
SCOREINIT:780
SCOREDIFF:248
#START
00000003,
03003300,
3,
33,
30000011,
01120112,
01022011,
01120112,
01022000,
500000000000000000000000000000000000000000000008,
00000001,
01201120,
11201122,
01102203,
03030330,
10201120,
11201122,
10201120,
11201122,
30030000,
0111,
10220225,
000000000000000000000008000000000000000000000000,
10201120,
11201122,
10201120,
11201122,
30030000,
0111,
10220225,
000000000000000000000008000000000000000000000000,
10011020,
10011020,
10011020,
10110020,
10011020,
10011020,
10011020,
1444,
10011020,
10011003,
03300004,
04400000,
#GOGOSTART
00000003,
01101112,
01102211,
01101112,
01102211,
01210121,
01201021,
01210121,
000000500000000000000000000008000000000000300000,
03003300,
3,
34,
30000011,
01120112,
01022011,
01120112,
01022000,
500000000000000000000000000000000000000000000008,
00033036,
000000000000000000000000000008000000000000300000,
#END
COURSE:Normal
LEVEL:5
SCOREINIT:1140
SCOREDIFF:445
#START
00000006,
000000000000000000000000000000000000000000000008,
,
33,
3,
10102011,
10102011,
10102011,
1120,
500000000000000000000000000000000000000000000008,
00000003,
0212,
0212,
0212,
500000000000000000000000000008000000000000000000,
1110,
11102020,
1110,
11102020,
30030000,
0111,
500000000000000000000000000000000000000000000008,
,
1110,
11102020,
1110,
11102020,
30030000,
0111,
500000000000000000000000000000000000000000000008,
,
10011000,
10011000,
10011000,
2,
10011000,
10011000,
1,
3333,
10011000,
10011005,
000000000000000000000008000000000000000000600000,
000000000000000000000008000000000000000000000000,
#GOGOSTART
00000003,
00201110,
00201110,
00201110,
00201110,
0212,
0212,
0212,
000000500000000000000000000008000000000000600000,
000000000000000000000000000000000000000000000008,
,
33,
3,
10102011,
10102011,
10102011,
1120,
500000000000000000000000000000000000000000000008,
00000006,
000000000000000000000008000000000000000000300000,
#END
COURSE:Easy
LEVEL:4
SCOREINIT:900
SCOREDIFF:463
#START
00000006,
000000000000000000000000000000000000000000000008,
,
33,
3,
1011,
21,
1011,
21,
500000000000000000000000000000000000000000000008,
00000003,
0111,
0111,
0111,
500000000000000000000000000008000000000000000000,
11,
1120,
11,
1120,
30030000,
0111,
500000000000000000000000000000000000000000000008,
,
11,
1120,
11,
1120,
30030000,
0111,
500000000000000000000000000000000000000000000008,
,
21,
1110,
21,
1,
21,
1110,
2,
3333,
21,
10101005,
000000000000000000000008000000000000000000600000,
000000000000000000000008000000000000000000000000,
#GOGOSTART
00000003,
0111,
0101,
0111,
0101,
0222,
0202,
0222,
000000500000000000000000000008000000000000600000,
000000000000000000000000000000000000000000000008,
,
33,
3,
1011,
21,
1011,
21,
500000000000000000000000000000000000000000000008,
00000006,
000000000000000000000008000000000000000000300000,
#END