Files
ESE/02 Anime/Velonica/Velonica.tja
T
2023-06-15 19:15:39 -05:00

289 lines
8.7 KiB
Plaintext

//TJADB Project
TITLE:Velonica
TITLEJA:Velonica
SUBTITLE:--Aqua Timez/BLEACH
SUBTITLEJA:「BLEACH」主題曲
BPM:137
WAVE:Velonica.ogg
OFFSET:-3.230
DEMOSTART:57.317
BGMOVIE:Velonica.mp4
COURSE:Oni
LEVEL:7
SCOREINIT:800
SCOREDIFF:190
#START
000000000000000000000000000000000000000000000000,
#BPMCHANGE 135.75
000000000000000000000000000000000000000000000000,
#BPMCHANGE 139.24
000000000000000000000000000000000000000000000000,
#BPMCHANGE 137
100000000100200000100000100100100000200000100000,
000000100000200000100100100000000100200000100000,
100000000100200000100000100100100000200000100000,
000000100000200000000100100000100000200200100000,
100000000100100000200000000000100000200000000000,
100000000100100000200000000000100000200100000100,
100000000100100000200000000000100000200000000000,
100000100200000000100000000000200100200000200200,
100000000100100000200000000000100000200000000000,
100000000100100000200000000000100000200100000100,
100000000100100000200000000000100000200000000000,
100000100200000100100000100200000200200200200000,
100000100200000000100000000000200000100000200000,
000000100000200200000200200200000100200000100000,
000000100000200000000000100000000200000000100000,
000000100000200200200000200200200000100000200000,
300000000400000000300000000000400000100000200000,
000000200000200200000200200200000200100000200000,
100000100200000000100000000000200000100000100000,
000000100000200000100100100000200200100100100000,
100000100000100000000000100000000000100000100000,
100000100000100000000000100000100000100000100100,
100000100000100000000000100000000000100000100000,
100000100000100000000000100000100000100000000000,
100000100000200000100000200000100000200000100100,
100000100000200000100000200000100000100000200000,
000000300000300000000000300000300000000000300000,
000000300000300000200000200200100100200200100100,
#GOGOSTART
100000000100200000100100100000100000200000100000,
000000100100200000100100100000100000200000100000,
100000000100200000100100100000100000200000100000,
000000100100200000100000100200100100200000000000,
100000000100200000100100100000100000200000100000,
000000100100200000100100100000100000200000100000,
100000100100200000100100100000100000200000100000,
000000100100200000100000500000000000000008000000,
100000000100200000100100100000100000200000100000,
000000100100200000100100100000100000200000100000,
100000000100200000100100100000100000200000100000,
000000100100200000100000100200100100200000000000,
100000000100200000100100100000100000200000100000,
000000100100200000100100100000100000200000100000,
300000000100200000300000000000100000200000300000,
000000100000200000100100100000100000200000300000,
000000100000200000100000100100100000100100100000,
#GOGOEND
300000000000000000000000000000000000000000000000,
#END
COURSE:Hard
LEVEL:5
SCOREINIT:1030
SCOREDIFF:270
#START
,
#BPMCHANGE 135.75
,
#BPMCHANGE 139.24
,
#BPMCHANGE 137
10210111,
01201020,
10210111,
,
1011100000102000,
01100120,
1011100000102000,
01100120,
1011101000102010,
01210120,
1011101000102000,
01210000,
1011101000200010,
0210,
1011101000200010,
0210,
1002001110200010,
0210,
1011101000200010,
0010111010000000,
11101010,
11101110,
22202020,
22202220,
11201010,
11201012,
03303303,
,
#GOGOSTART
11210120,
11210110,
10210121,
01210000,
11210120,
11210110,
10210121,
500000000000000000000000000008000000000000000000,
11210120,
11210110,
10210121,
01210000,
11210120,
11210110,
10210121,
500000000000000000000000000008000000000000000000,
500000000000000000000000000008000000000000000000,
#GOGOEND
3,
#END
COURSE:Normal
LEVEL:4
SCOREINIT:1270
SCOREDIFF:430
#START
000000000000000000000000000000000000000000000000,
#BPMCHANGE 135.75
000000000000000000000000000000000000000000000000,
#BPMCHANGE 139.24
000000000000000000000000000000000000000000000000,
#BPMCHANGE 137
100000000000100000100000000000000000000000100000,
000000000000000000000000000000000000000000000000,
100000000000100000100000000000000000000000100000,
000000000000000000000000000000000000000000000000,
100000000000000000100000000000000000100000100000,
000000000000000000200000000000000000000000000000,
100000000000000000100000000000000000100000100000,
000000000000000000200000000000000000000000000000,
100000000000000000100000000000000000100000100000,
000000000000000000200000000000000000000000000000,
100000000000000000100000000000000000100000100000,
000000000000000000000000000000000000000000000000,
100000000000000000000000100000100000100000000000,
100000000000200000000000100000000000000000000000,
100000000000000000000000100000100000100000000000,
100000000000200000000000100000000000000000000000,
400000000400000000000000100000100000100000000000,
100000000000200000000000100000000000000000000000,
100000000000000000000000100000100000100000000000,
100000000000000000000000000000000000000000000000,
100000100000100000000000100000000000000000000000,
100000100000100000000000000000000000000000000000,
100000100000100000000000100000000000000000000000,
100000100000100000000000000000000000000000000000,
100000100000100000000000100000000000000000000000,
100000100000100000000000100000000000000000000000,
000000300000300000000000300000300000000000300000,
000000000000000000000000000000000000000000000000,
#GOGOSTART
100000000000100000100000000000000000200000000000,
100000000000100000000000000000000000000000000000,
100000000000100000100000000000000000200000000000,
100000000000000000000000000000000000000000000000,
100000000000100000100000000000000000200000000000,
100000000000100000000000000000000000000000000000,
100000000000100000100000000000000000200000000000,
500000000000000000000000800000000000000000000000,
100000000000100000100000000000000000200000000000,
100000000000100000000000000000000000000000000000,
100000000000100000100000000000000000200000000000,
100000000000000000000000000000000000000000000000,
100000000000100000100000000000000000200000000000,
100000000000100000000000000000000000000000000000,
100000000000100000100000000000100000000000000000,
500000000000000000000000800000000000000000000000,
500000000000000000000000800000000000000000000000,
#GOGOEND
3,
#END
COURSE:Easy
LEVEL:4
#START
000000000000000000000000000000000000000000000000,
#BPMCHANGE 135.75
000000000000000000000000000000000000000000000000,
#BPMCHANGE 139.24
000000000000000000000000000000000000000000000000,
#BPMCHANGE 137
100000000000000000100000000000000000000000100000,
000000000000000000000000000000000000000000000000,
100000000000000000100000000000000000000000100000,
000000000000000000000000000000000000000000000000,
100000000000000000100000000000000000000000000000,
100000000000000000000000000000000000000000000000,
100000000000000000100000000000000000000000000000,
100000000000000000000000000000000000000000000000,
100000000000000000100000000000000000000000000000,
100000000000000000000000000000000000000000000000,
100000000000000000100000000000000000000000000000,
100000000000000000000000000000000000000000000000,
100000000000000000000000200000000000000000000000,
100000000000100000000000100000000000000000000000,
100000000000000000000000200000000000000000000000,
100000000000100000000000100000000000000000000000,
100000000000000000000000200000000000000000000000,
100000000000100000000000100000000000000000000000,
100000000000000000000000200000000000000000000000,
100000000000000000000000000000000000000000000000,
100000000000100000000000100000000000000000000000,
100000000000000000000000000000000000000000000000,
100000000000100000000000100000000000000000000000,
100000000000000000000000000000000000000000000000,
100000000000100000000000100000000000000000000000,
100000000000000000000000100000000000000000000000,
000000300000000000000000300000000000000000300000,
000000000000000000000000000000000000000000000000,
#GOGOSTART
100000000000000000000000000000000000000000000000,
100000000000100000000000100000000000000000000000,
100000000000000000000000200000000000000000000000,
100000000000000000000000000000000000000000000000,
100000000000000000000000000000000000000000000000,
100000000000100000000000100000000000000000000000,
100000000000000000000000200000000000000000000000,
500000000000000000000000800000000000000000000000,
100000000000000000000000000000000000000000000000,
100000000000100000000000100000000000000000000000,
100000000000000000000000200000000000000000000000,
100000000000000000000000000000000000000000000000,
300000000000000000000000000000000000000000000000,
300000000000300000000000300000000000000000000000,
300000000000000000000000400000000000000000000000,
500000000000000000000000800000000000000000000000,
500000000000000000000000800000000000000000000000,
#GOGOEND
3,
#END