334 lines
13 KiB
Plaintext
334 lines
13 KiB
Plaintext
//TJADB Project
|
||
TITLE:DIAMOND
|
||
TITLEJA:DIAMOND
|
||
SUBTITLE:--Asu feat. Rie Kugimiya/THE iDOLM@STER MUST SONGS: Blue Album
|
||
BPM:147
|
||
WAVE:DIAMOND.ogg
|
||
OFFSET:-1.845
|
||
DEMOSTART:48.161
|
||
|
||
COURSE:Oni
|
||
LEVEL:7
|
||
BALLOON:13
|
||
SCOREINIT:700
|
||
SCOREDIFF:208
|
||
|
||
|
||
#START
|
||
|
||
|
||
,
|
||
,
|
||
,
|
||
,
|
||
|
||
#GOGOSTART
|
||
400000000000300000400000000000400000300000400000,
|
||
000000400000300000300000400000000000300000000000,
|
||
400000000000300000000000000000000000300000000000,
|
||
000000000000300000000000000000000000300000000000,
|
||
400000000000300000400000000000400000300000400000,
|
||
000000400000300000300000400000000000300000000000,
|
||
400000000000300000000000000000000000300000000000,
|
||
000000000000300000000000000000000000300000000000,
|
||
|
||
#GOGOEND
|
||
100000000000200000100000000000000000200000100000,
|
||
100000000000200000100000000000000000200000100000,
|
||
000000100000200000200000100000100000200000100000,
|
||
000000100000200000100000000000100000000000200000,
|
||
100000200200100000100000000000000000200000100000,
|
||
100000200200100000100000000000000000200000100000,
|
||
200000100000000000100000200000100000000000200200,
|
||
200000200000100000100000000000100000200000200000,
|
||
100000100000200200200000100000100000000000100000,
|
||
100000200200200000100000100000200000000000100000,
|
||
100000200200200000100000100000200000000000200200,
|
||
200000200200200000100100100000100100100000200000,
|
||
100000100000200200200000100000100000000000100000,
|
||
100000200200200000100000100000200000000000200000,
|
||
100000200200100000200000100000200200100000200000,
|
||
500000000000000000000000000008000000000000300000,
|
||
300000000000000000000000000000000000000000000000,
|
||
|
||
#GOGOSTART
|
||
100000000000100000100000200000100100200000100000,
|
||
200000100100200000100000000000100000200000200200,
|
||
100000100000200000200200100000100000200000200200,
|
||
100000100000200000100000000000100000200000000000,
|
||
100000000000100000100000200000100100200000100000,
|
||
200000100100200000100000000000100000200000200200,
|
||
100000100000200000200200100000100000200000200200,
|
||
100000100000200000100000200200200000200000200200,
|
||
100000000000100000100000200000100100200000100000,
|
||
200000100100200000100000000000100000200000200200,
|
||
100000100000200000200200100000100000200000200200,
|
||
100000100000200000100000000000100100200000200200,
|
||
200000000000200000200000100000100000200000200000,
|
||
100000100000200000200000100000100000200000200000,
|
||
100000000000000000100000200000100000000000100000,
|
||
200000100100200000100000200000100100200000100100,
|
||
200000100100200000100100200200100100200000500000,
|
||
000000000000000000000000000000000000000000000000,
|
||
000000000000000000000008000000000000000000000000,
|
||
700000000000000000000000000000000000000000000000,
|
||
800000000000000000000000000000000000000000000000,
|
||
000000000000300000000000000000300000000000300000,
|
||
000000400000300000300000400000000000300000000000,
|
||
100000000000200000100000000000100000200000100000,
|
||
000000100000200000100000200200100000200000100100,
|
||
200000000000300000000000000000300000000000300000,
|
||
000000400000300000300000400000000000300000000000,
|
||
100000000000200000100000000000100000200000100000,
|
||
200200100100200000100100200200100000200200100100,
|
||
200000100000200000100000200000100100200000100000,
|
||
000000200000100000100000200000100000200200100000,
|
||
|
||
#GOGOEND
|
||
300000000000200000000000000000200000000000200000,
|
||
000000200000200000000000200000000000200000000000,
|
||
|
||
|
||
#END
|
||
|
||
|
||
COURSE:Hard
|
||
LEVEL:5
|
||
BALLOON:13,13
|
||
SCOREINIT:700
|
||
SCOREDIFF:225
|
||
|
||
|
||
#START
|
||
|
||
|
||
000000000000000000000000000000000000000000000000,
|
||
000000000000000000000000000000000000000000000000,
|
||
000000000000000000000000000000000000000000000000,
|
||
000000000000000000000000000000000000000000000000,
|
||
#GOGOSTART
|
||
400000000000300000400000000000400000300000400000,
|
||
000000400000300000300000400000000000300000000000,
|
||
400000000000300000000000000000000000300000000000,
|
||
000000000000300000000000000000000000300000000000,
|
||
400000000000300000400000000000400000300000400000,
|
||
000000400000300000300000400000000000300000000000,
|
||
400000000000300000000000000000000000300000000000,
|
||
000000000000300000000000000000000000300000000000,
|
||
#GOGOEND
|
||
100000000000200000100000000000000000200000100000,
|
||
100000000000200000100000000000000000200000100000,
|
||
000000100000200000200000100000100000200000100000,
|
||
000000100000200000100000000000100000000000200000,
|
||
100000000000200000100000000000000000200000100000,
|
||
100000000000200000100000000000000000200000100000,
|
||
200000100000000000100000200000100000000000200000,
|
||
000000200000100000200000000000100000200000200000,
|
||
100000100000200000200000100000100000000000100000,
|
||
100000200000200000100000100000200000000000100000,
|
||
100000200000200000100000100000200000000000100000,
|
||
000000100000000000100000000000200200200000200000,
|
||
100000100000200000200000100000100000000000100000,
|
||
100000200000200000100000100000200000000000100000,
|
||
100000000000100000000000100000000000100000000000,
|
||
500000000000000000000000000080000000000000300000,
|
||
300000000000000000000000000000000000000000000000,
|
||
#GOGOSTART
|
||
100000000000100000100000200000200000100000100000,
|
||
200000000000200000100000000000100000200000200000,
|
||
100000100000200000200000100000100000200000200000,
|
||
100000100000200000100000000000100000200000000000,
|
||
100000000000100000100000200000200000100000100000,
|
||
200000200000100000100000000000100000200000100000,
|
||
100000000000100000000000200000000000200000000000,
|
||
100000000000000000000000000000000000000000000000,
|
||
100000000000100000100000200000200000100000100000,
|
||
200000200000100000100000000000100000200000200000,
|
||
100000100000200000200000100000100000200000200000,
|
||
100000100000200000100000000000200200200000000000,
|
||
100000000000200000000000100000000000200000000000,
|
||
100000000000200000000000100000000000200000000000,
|
||
100000000000000000100000200000100000000000100000,
|
||
200000100000200000100000200000100000200000100000,
|
||
200000100000200000100000200000200200200000500000,
|
||
000000000000000000000000000000000000000000000000,
|
||
000000000000000000000080000000000000000000000000,
|
||
700000000000000000000000000000000000000000800000,
|
||
000000000000000000000000000000000000000000000000,
|
||
000000000000300000000000000000300000000000300000,
|
||
000000400000300000300000400000000000300000000000,
|
||
000000000000300000000000000000000000300000000000,
|
||
000000000000300000000000300000000000300000000000,
|
||
000000000000300000000000000000300000000000300000,
|
||
000000400000300000300000400000000000300000000000,
|
||
000000000000300000000000000000000000300000000000,
|
||
000000000000300000000000300000000000300000000000,
|
||
900000000000000000000000000000000000000000000000,
|
||
000000000000000000800000000000000000000000000000,
|
||
#GOGOEND
|
||
300000000000000000000000000000000000000000000000,
|
||
|
||
|
||
#END
|
||
|
||
|
||
COURSE:Normal
|
||
LEVEL:4
|
||
BALLOON:10,10
|
||
SCOREINIT:730
|
||
SCOREDIFF:263
|
||
|
||
|
||
#START
|
||
|
||
|
||
000000000000000000000000000000000000000000000000,
|
||
000000000000000000000000000000000000000000000000,
|
||
000000000000000000000000000000000000000000000000,
|
||
000000000000000000000000000000000000000000000000,
|
||
#GOGOSTART
|
||
400000000000300000000000000000000000300000000000,
|
||
000000000000300000000000000000000000300000000000,
|
||
400000000000300000000000000000000000300000000000,
|
||
000000000000300000000000000000000000300000000000,
|
||
400000000000300000000000000000000000300000000000,
|
||
000000000000300000000000000000000000300000000000,
|
||
400000000000300000000000000000000000300000000000,
|
||
000000000000300000000000000000000000300000000000,
|
||
#GOGOEND
|
||
100000000000100000000000200000000000000000000000,
|
||
100000000000100000000000200000000000000000000000,
|
||
100000000000100000000000200000000000200000000000,
|
||
100000000000100000000000200000000000000000000000,
|
||
100000000000100000000000200000000000000000000000,
|
||
100000000000100000000000200000000000000000000000,
|
||
200000000000200000000000100000000000100000000000,
|
||
200000000000200000000000100000000000000000000000,
|
||
100000000000100000000000100000100000000000000000,
|
||
100000000000100000000000100000100000000000000000,
|
||
100000000000100000000000100000100000000000200000,
|
||
000000200000000000200000000000200000200000000000,
|
||
100000000000100000000000100000100000000000000000,
|
||
100000000000100000000000100000100000000000000000,
|
||
100000000000100000000000100000000000100000000000,
|
||
500000000000000000000000000080000000000000300000,
|
||
300000000000000000000000000000000000000000000000,
|
||
#GOGOSTART
|
||
100000000000100000100000100000000000100000000000,
|
||
100000000000100000100000100000000000000000000000,
|
||
100000000000100000100000100000000000100000100000,
|
||
100000000000100000100000000000200000000000000000,
|
||
100000000000100000100000100000000000100000000000,
|
||
100000000000100000100000100000000000000000000000,
|
||
200000000000200000000000200000000000200000000000,
|
||
200000000000000000000000000000000000000000000000,
|
||
100000000000100000100000100000000000100000000000,
|
||
100000000000100000100000100000000000000000000000,
|
||
100000000000100000100000100000000000100000100000,
|
||
100000000000100000100000000000200000200000000000,
|
||
000000000000100000000000100000000000200000000000,
|
||
200000000000100000000000100000000000200000000000,
|
||
200000000000000000100000100000100000000000100000,
|
||
000000100000000000100000000000100000000000100000,
|
||
000000100000000000100000000000200000200000500000,
|
||
000000000000000000000000000000000000000000000000,
|
||
000000000000000000000080000000000000000000000000,
|
||
700000000000000000000000000000000000000000800000,
|
||
000000000000000000000000000000000000000000000000,
|
||
000000000000300000000000000000300000000000300000,
|
||
000000300000300000000000400000000000400000000000,
|
||
000000000000300000000000000000000000300000000000,
|
||
000000000000300000000000300000000000300000000000,
|
||
000000000000300000000000000000300000000000300000,
|
||
000000300000300000000000400000000000400000000000,
|
||
000000000000300000000000000000000000300000000000,
|
||
000000000000300000000000300000000000300000000000,
|
||
900000000000000000000000000000000000000000000000,
|
||
000000000000000000800000000000000000000000000000,
|
||
#GOGOEND
|
||
300000000000000000000000000000000000000000000000,
|
||
|
||
|
||
#END
|
||
|
||
|
||
COURSE:Easy
|
||
LEVEL:3
|
||
BALLOON:8,8
|
||
SCOREINIT:590
|
||
SCOREDIFF:250
|
||
|
||
|
||
#START
|
||
|
||
|
||
000000000000000000000000000000000000000000000000,
|
||
000000000000000000000000000000000000000000000000,
|
||
000000000000000000000000000000000000000000000000,
|
||
000000000000000000000000000000000000000000000000,
|
||
#GOGOSTART
|
||
000000000000300000000000000000000000300000000000,
|
||
000000000000300000000000000000000000300000000000,
|
||
000000000000400000000000000000000000400000000000,
|
||
000000000000400000000000000000000000400000000000,
|
||
000000000000300000000000000000000000300000000000,
|
||
000000000000300000000000000000000000300000000000,
|
||
000000000000400000000000000000000000400000000000,
|
||
000000000000400000000000000000000000400000000000,
|
||
#GOGOEND
|
||
000000000000100000000000000000000000100000000000,
|
||
000000000000100000000000000000000000100000000000,
|
||
200000000000100000000000200000000000100000000000,
|
||
000000000000100000000000000000000000100000000000,
|
||
000000000000100000000000000000000000100000000000,
|
||
000000000000100000000000000000000000100000000000,
|
||
200000000000100000000000200000000000100000000000,
|
||
200000000000100000000000200000000000000000000000,
|
||
100000000000000000000000100000000000000000000000,
|
||
100000000000100000000000100000000000000000000000,
|
||
100000000000000000000000100000000000000000000000,
|
||
200000000000200000000000200000000000000000000000,
|
||
100000000000000000000000100000000000000000000000,
|
||
100000000000100000000000100000000000000000000000,
|
||
100000000000100000000000100000000000100000000000,
|
||
500000000000000000000000000080000000000000000000,
|
||
300000000000000000000000000000000000000000000000,
|
||
#GOGOSTART
|
||
100000000000000000000000100000000000000000000000,
|
||
100000000000100000000000100000000000000000000000,
|
||
100000000000100000000000100000000000000000000000,
|
||
200000000000200000000000200000000000000000000000,
|
||
100000000000000000000000100000000000000000000000,
|
||
100000000000100000000000100000000000000000000000,
|
||
200000000000200000000000200000000000200000000000,
|
||
200000000000000000000000000000000000000000000000,
|
||
100000000000000000000000100000000000000000000000,
|
||
100000000000100000000000100000000000000000000000,
|
||
100000000000100000000000100000000000000000000000,
|
||
200000000000200000000000200000000000200000000000,
|
||
000000000000100000000000100000000000200000000000,
|
||
200000000000100000000000100000000000200000000000,
|
||
200000000000000000000000100000000000000000000000,
|
||
100000000000100000000000100000000000100000000000,
|
||
200000000000200000000000200000000000200000500000,
|
||
000000000000000000000000000000000000000000000000,
|
||
000000000000000000000080000000000000000000000000,
|
||
700000000000000000000000000000000000800000000000,
|
||
000000000000000000000000000000000000000000000000,
|
||
000000000000300000000000000000000000300000000000,
|
||
000000000000300000000000300000000000300000000000,
|
||
000000000000300000000000000000000000300000000000,
|
||
000000000000300000000000300000000000300000000000,
|
||
000000000000300000000000000000000000300000000000,
|
||
000000000000300000000000300000000000300000000000,
|
||
000000000000300000000000000000000000300000000000,
|
||
000000000000300000000000300000000000300000000000,
|
||
900000000000000000000000000000000000000000000000,
|
||
000000000000800000000000000000000000000000000000,
|
||
#GOGOEND
|
||
300000000000000000000000000000000000000000000000,
|
||
|
||
|
||
#END
|
||
|