Files
ESE/07 Game Music/Heartache/Heartache.tja
T
2023-01-17 00:45:18 -05:00

422 lines
8.3 KiB
Plaintext

//TJADB Project
TITLE:Heartache
TITLEJA:心の痛み
SUBTITLE:--Toby Fox/UNDERTALE
SUBTITLEJA:「UNDERTALE」より
BPM:239
WAVE:Heartache.ogg
OFFSET:-1.629
DEMOSTART:28.741
COURSE:Oni
LEVEL:8
BALLOON:19,19,10,19,10
SCOREINIT:540
SCOREDIFF:133
#START
#MEASURE 6/4
#SCROLL 0.67
,
33,
302020202121,
200000200022100000202020,
100020002000100000200022,
102102121210,
102020121020,
#GOGOSTART
121221112120,
121221112120,
7,
#GOGOEND
800000000000000010201110,
201211102020,
101211102020,
201211102020,
102220112122,
121110212020,
121111212020,
111111222222,
102020121020,
#GOGOSTART
121221112120,
121221112120,
7,
800344,
121210112020,
121221121212,
700000802121,
500000000008000000000000200000000000100000100000100000200000100000000000,
500000000000000000000000000000000008000000000000200000000000200000000000,
121221121212,
112121112122,
112121212121,
221212212121,
221212212120,
#GOGOEND
,
33,
222220002000100010001000,
000000202020200000000000200000000000100000000000100000100000100000000000,
100010001000100010001000100100200200,
102202102120,
222220002000100010001000,
102211121020,
111212112120,
111210112120,
111210112120,
101120212021,
121210111220,
121210111220,
222220002000200010001000,
000000202020200000000000200000000000200000000000100000100000100000000000,
100010001000100010100000200100200000,
111210112120,
111210112120,
101120222120,
121210112120,
121210112120,
111210222120,
102020121020,
#GOGOSTART
121221112120,
121221112120,
7,
800344,
121210112020,
121221121212,
700000802121,
500000000008000000000000200000000000100000100000100000000000200000000000,
500000000000000000000000000000000008000000000000200000000000200000000000,
121221121212,
500000000000000000000000000000000008000000000000200000000000200000000000,
121221121212,
121221121212,
#GOGOEND
300220300020302030203000,
#END
COURSE:Hard
LEVEL:7
BALLOON:15,15,8,15,8
SCOREINIT:680
SCOREDIFF:178
#START
#MEASURE 6/4
#SCROLL 0.67
,
33,
300000111020,
100200100220,
102020100200,
200200202020,
102020222020,
#GOGOSTART
302220002020,
302220111020,
7,
#GOGOEND
8,
101110002020,
101110002020,
101110002020,
102020111020,
001110002020,
001110202220,
111010222020,
102020222020,
#GOGOSTART
302220002020,
302220111020,
7,
800444,
302220002020,
302220111020,
700822,
500000000008000000000000200000000000100000100000100000000000200000000000,
500000000000000000000000000000000008000000000000200000000000200000000000,
302220111020,
101101102020,
101101102020,
220202201010,
220202201010,
#GOGOEND
,
33,
022020101010,
022020101110,
100202102020,
100202102020,
022020101010,
102020222020,
500000000008000000000000200000000000100000000000200000000000200000000000,
500000000008000000000000200000000000100000000000200000000000200000000000,
500000000008000000000000100000000000100000100000100000000000100000000000,
500000000008000000000000200000000000200000200000200000000000200000000000,
500000000008000000000000100000000000500000000008000000000000200000000000,
500000000008000000000000100000000000500000000008000000000000200000000000,
022020101010,
022020101110,
500000000008000000000000200000000000100000000000200000000000200000000000,
500000000008000000000000200000000000100000000000200000000000200000000000,
500000000008000000000000100000000000100000100000100000000000100000000000,
500000000008000000000000200000000000200000200000200000000000200000000000,
500000000008000000000000100000000000500000000008000000000000200000000000,
500000000008000000000000100000000000500000000008000000000000200000000000,
111010222020,
102020222020,
#GOGOSTART
302220002020,
302220111020,
7,
800444,
302220002020,
302220111020,
700822,
500000000008000000000000200000000000100000100000100000000000200000000000,
500000000000000000000000000000000008000000000000200000000000200000000000,
302220111020,
500000000000000000000000000000000008000000000000200000000000200000000000,
402220111020,
600008,
#GOGOEND
302302303030,
#END
COURSE:Normal
LEVEL:5
BALLOON:10,10,6,10,6
SCOREINIT:740
SCOREDIFF:205
#START
#MEASURE 6/4
#SCROLL 0.67
,
33,
300112,
200200200020,
202000200200,
200200202020,
110220,
#GOGOSTART
322022,
302112,
7,
#GOGOEND
8,
100100002020,
100100002020,
100100002020,
100112,
011022,
011122,
111222,
110220,
#GOGOSTART
322022,
302112,
7,
800444,
500000000000000000000000000000000008000000000000200000000000200000000000,
500000000000000000000008000000000000100000000000100000000000200000000000,
700811,
500000000000000000000008000000000000100000000000100000000000200000000000,
500000000000000000000000000000000008000000000000100000000000100000000000,
122112,
100100101010,
100100101010,
200200202020,
200200202020,
#GOGOEND
,
33,
022011,
022011,
100200102020,
100200102020,
022011,
100222,
500000000008000000000000000000000000100000000000100000000000100000000000,
500000000008000000000000000000000000200000000000200000000000200000000000,
500000000008000000000000000000000000100000000000100000000000100000000000,
500000000008000000000000000000000000200000000000200000000000200000000000,
500000000008000000000000000000000000500000000008000000000000000000000000,
500000000008000000000000000000000000500000000008000000000000000000000000,
022011,
022011,
500000000008000000000000000000000000100000000000100000000000100000000000,
500000000008000000000000000000000000200000000000200000000000200000000000,
500000000008000000000000000000000000100000000000100000000000100000000000,
500000000008000000000000000000000000200000000000200000000000200000000000,
500000000008000000000000000000000000500000000008000000000000000000000000,
500000000008000000000000000000000000500000000008000000000000000000000000,
500000000000000000000000000000000000000000000000000000000008000000000000,
110220,
#GOGOSTART
322022,
302112,
7,
800444,
500000000000000000000000000000000008000000000000200000000000200000000000,
500000000000000000000008000000000000100000000000100000000000200000000000,
700811,
500000000000000000000008000000000000100000000000100000000000200000000000,
500000000000000000000000000000000008000000000000100000000000100000000000,
122112,
500000000000000000000000000000000008000000000000100000000000100000000000,
222112,
600008,
#GOGOEND
300300303030,
#END
COURSE:Easy
LEVEL:4
BALLOON:8,8,4,8,4
SCOREINIT:890
SCOREDIFF:380
#START
#MEASURE 6/4
#SCROLL 0.67
,
3,
3,
22,
22,
22,
12,
#GOGOSTART
322,
322,
7,
#GOGOEND
8,
102,
102,
102,
12,
010020,
010020,
110220,
12,
#GOGOSTART
322,
322,
7,
84,
500000000000000000000000000000000008000000000000000000000000000000000000,
500000000000000000000008000000000000100000000000100000000000000000000000,
78,
500000000000000000000008000000000000100000000000100000000000000000000000,
500000000000000000000000000000000008000000000000000000000000000000000000,
122,
11,
11,
22,
22,
#GOGOEND
,
3,
020010,
020010,
11,
11,
020010,
12,
500000000008000000000000000000000000100000000000100000000000000000000000,
500000000008000000000000000000000000200000000000200000000000000000000000,
500000000008000000000000000000000000100000000000100000000000000000000000,
500000000008000000000000000000000000200000000000200000000000000000000000,
500000000008000000000000000000000000500000000008000000000000000000000000,
500000000008000000000000000000000000500000000008000000000000000000000000,
020010,
020010,
500000000008000000000000000000000000100000000000100000000000000000000000,
500000000008000000000000000000000000200000000000200000000000000000000000,
500000000008000000000000000000000000100000000000100000000000000000000000,
500000000008000000000000000000000000200000000000200000000000000000000000,
500000000008000000000000000000000000500000000008000000000000000000000000,
500000000008000000000000000000000000500000000008000000000000000000000000,
500000000000000000000000000000000000000000000000000000000008000000000000,
12,
#GOGOSTART
322,
322,
7,
84,
500000000000000000000000000000000008000000000000000000000000000000000000,
500000000000000000000008000000000000100000000000100000000000000000000000,
78,
500000000000000000000008000000000000100000000000100000000000000000000000,
500000000000000000000000000000000008000000000000000000000000000000000000,
122,
500000000000000000000000000000000008000000000000000000000000000000000000,
200222,
600008,
#GOGOEND
300300600080,
#END