294 lines
3.4 KiB
Plaintext
294 lines
3.4 KiB
Plaintext
//TJADB Project
|
|
TITLE:366-Nichi
|
|
TITLEJA:366日
|
|
SUBTITLE:--HY
|
|
SUBTITLEJA:HY
|
|
BPM:76
|
|
WAVE:366-Nichi.ogg
|
|
OFFSET:-3.250
|
|
DEMOSTART:89.318
|
|
|
|
COURSE:Oni
|
|
LEVEL:7
|
|
BALLOON:45
|
|
SCOREINIT:800
|
|
SCOREDIFF:218
|
|
|
|
|
|
#START
|
|
|
|
|
|
#BARLINEOFF
|
|
,
|
|
,
|
|
,
|
|
#BARLINEON
|
|
#SCROLL 0.5
|
|
1010222010201120,
|
|
1022100020112020,
|
|
1010222010201120,
|
|
1022102112201200,
|
|
1010222010201120,
|
|
1022120210201122,
|
|
1021012011201000,
|
|
2000000010002220,
|
|
1010222010201120,
|
|
1022100020112020,
|
|
1010222010201120,
|
|
1022102112201120,
|
|
1010222010201120,
|
|
1022120210201122,
|
|
1021012011201000,
|
|
2000000010002220,
|
|
1002221110102021,
|
|
1001211010112020,
|
|
1002221110102021,
|
|
1011211010002000,
|
|
1002221110102021,
|
|
1001211010112020,
|
|
100000100000000000500000000000000008000000000000,
|
|
#MEASURE 5/4
|
|
300000000000000000600000000000000000000000000008000000000000,
|
|
#MEASURE 4/4
|
|
1011202210112022,
|
|
#GOGOSTART
|
|
1011202210112022,
|
|
1110202211202022,
|
|
1110202211202110,
|
|
1011202210112022,
|
|
1011202210112022,
|
|
1110202211202022,
|
|
1110202211202110,
|
|
500000000000000000000000000000000008000000000000,
|
|
1010201110112011,
|
|
#GOGOEND
|
|
1010201120112011,
|
|
#GOGOSTART
|
|
#SCROLL 2
|
|
1010201110112011,
|
|
#GOGOEND
|
|
1022102210221020,
|
|
#GOGOSTART
|
|
#SCROLL 3
|
|
3034040304034300,
|
|
#GOGOEND
|
|
1012020210112010,
|
|
#GOGOSTART
|
|
#SCROLL 4
|
|
1011202011112220,
|
|
#GOGOEND
|
|
10170000,
|
|
000000000000000000000000000000000000000000000008,
|
|
|
|
|
|
#END
|
|
|
|
|
|
COURSE:Hard
|
|
LEVEL:5
|
|
SCOREINIT:1040
|
|
SCOREDIFF:325
|
|
BALLOON:32
|
|
|
|
|
|
#START
|
|
|
|
|
|
10220110,
|
|
1022,
|
|
10220110,
|
|
1212,
|
|
10221020,
|
|
1210,
|
|
1210,
|
|
12,
|
|
|
|
10220121,
|
|
10201210,
|
|
10220121,
|
|
1000200010201110,
|
|
10221020,
|
|
1000200010001110,
|
|
10210000,
|
|
1,
|
|
|
|
1000201110102000,
|
|
1000111010102000,
|
|
1000201110000011,
|
|
100000100100000000000500000000000000000008000000,
|
|
1000201110102000,
|
|
1000111010102000,
|
|
30030044,
|
|
#MEASURE 5/4
|
|
30030060000000008000,
|
|
|
|
#MEASURE 4/4
|
|
#GOGOSTART
|
|
1011200010112010,
|
|
11201120,
|
|
1010201110102000,
|
|
1010201110102000,
|
|
1011200010112010,
|
|
11201120,
|
|
1010201110102000,
|
|
1010201110202050,
|
|
|
|
000000000000000000000000000000000008000000000000,
|
|
#GOGOEND
|
|
|
|
10101212,
|
|
1001100030004000,
|
|
10101212,
|
|
1001100030304000,
|
|
10101120,
|
|
10101115,
|
|
000000000008000000000100100000100000100000000000,
|
|
10170000,
|
|
|
|
0008,
|
|
,
|
|
,
|
|
#END
|
|
|
|
COURSE:Normal
|
|
LEVEL:3
|
|
SCOREINIT:920
|
|
SCOREDIFF:325
|
|
BALLOON:15
|
|
|
|
#START
|
|
|
|
|
|
#BARLINEOFF
|
|
,
|
|
,
|
|
,
|
|
#BARLINEON
|
|
10001011,
|
|
1120,
|
|
10001011,
|
|
10102220,
|
|
10101110,
|
|
1120,
|
|
10101110,
|
|
12,
|
|
|
|
10211020,
|
|
1210,
|
|
10211020,
|
|
1210,
|
|
10211020,
|
|
1120,
|
|
10210020,
|
|
12,
|
|
|
|
10111001,
|
|
100000000000100000500000000000000000000008000000,
|
|
00111001,
|
|
200000000000200000500000000000000000000008000000,
|
|
00111001,
|
|
100000000000100000500000000000000000000008000000,
|
|
30030000,
|
|
#MEASURE 5/4
|
|
3006000080,
|
|
|
|
#MEASURE 4/4
|
|
#GOGOSTART
|
|
10111020,
|
|
100000000000100000500000000000000000000008000000,
|
|
11101020,
|
|
11102000,
|
|
10111020,
|
|
100000000000100000500000000000000000000008000000,
|
|
30303300,
|
|
30303336,
|
|
|
|
00000800,
|
|
#GOGOEND
|
|
|
|
10102220,
|
|
10104440,
|
|
10102220,
|
|
3344,
|
|
10201120,
|
|
30301125,
|
|
000000000000000008000000200000000000200000200000,
|
|
00070000,
|
|
00080000,
|
|
|
|
|
|
#END
|
|
|
|
|
|
COURSE:Easy
|
|
LEVEL:2
|
|
SCOREINIT:830
|
|
SCOREDIFF:480
|
|
BALLOON:9
|
|
|
|
|
|
#START
|
|
|
|
|
|
#BARLINEOFF
|
|
,
|
|
,
|
|
,
|
|
#BARLINEON
|
|
1011,
|
|
12,
|
|
1011,
|
|
12,
|
|
1110,
|
|
1110,
|
|
1110,
|
|
1,
|
|
|
|
1110,
|
|
1120,
|
|
1110,
|
|
1120,
|
|
1110,
|
|
1120,
|
|
1110,
|
|
1,
|
|
|
|
0120,
|
|
100000000000500000000000000000000000000008000000,
|
|
0120,
|
|
2220,
|
|
0120,
|
|
100000000000500000000000000008000000000000000000,
|
|
33,
|
|
#MEASURE 5/4
|
|
3006000080,
|
|
|
|
#MEASURE 4/4
|
|
#GOGOSTART
|
|
1110,
|
|
100000000000500000000000000008000000000000000000,
|
|
1120,
|
|
1120,
|
|
1110,
|
|
100000000000500000000000000008000000000000000000,
|
|
3340,
|
|
3333,
|
|
|
|
60000800,
|
|
#GOGOEND
|
|
|
|
3034,
|
|
3034,
|
|
3034,
|
|
3333,
|
|
10011000,
|
|
1111,
|
|
58,
|
|
1700,
|
|
|
|
00000800,
|
|
|
|
|
|
#END
|
|
|