Files
ESE/01 Pop/920/920.tja
T
2023-06-15 19:00:23 -05:00

411 lines
16 KiB
Plaintext

//TJADB Project
TITLE:920
TITLEJA:920 feat.小宇
SUBTITLE:--A-Lin feat. Xiaoyu Song
BPM:166
WAVE:920.ogg
OFFSET:-0.987
DEMOSTART:58.095
COURSE:Oni
LEVEL:7
BALLOON:18,12
SCOREINIT:660
SCOREDIFF:175
#START
100000000000100000000000000000100000000000100000,
100000000000100000000000000000100000100000000000,
200000000000200000000000000000200000000000200000,
200000000000200000000000000000200000200000000000,
100000000000100000000000000000100000000000100000,
100000000000100000000000000000100000100000000000,
200000000000200000000000000000000000400000000000,
400000000000000000000000400000000000000000000000,
#GOGOSTART
100000100100100000000000200000200200200000000000,
200000100000200000100000200000100000200000000000,
100000100100100000000000200000200200200000000000,
200000100000200000100000200000100000200000000000,
100000100100100000000000200000200200200000000000,
200000100000200000100000200000100000200000000000,
100000100100100000300000000000000000100000000000,
100000100100100000300000000000000000100000000000,
200000200200200000000000100000100100100000000000,
200000100000200000100000200000100000200000000000,
200000200200200000000000100000100100100000000000,
200000100000200000100000200000100000200000000000,
200000200200200000000000100000100100100000000000,
200000100000200000100000200000100000200000000000,
200000100100100000400000000000000000200000000000,
200000100100100000400000000000000000200000000000,
#GOGOEND
100000100000100000000000100000000000000000000000,
100000200000100000200000100000000000000000000000,
200000200000200000000000200000000000000000000000,
200000100000200000100000200000000000000000000000,
000000000000100100100000100000000000100000200000,
100000200000100000200000100000000000000000000000,
000000000000100100100000100000000000100000200000,
100000200000100000200000100000000000000000300000,
100000100100100000000000200000200000200000000000,
200000100000200000100000200000000000200000200000,
100000100100100000000000200000200000200000000000,
200000100000200000100000200000000000200000200000,
100000100100100000000000200000200000200000000000,
200000100000200000100000200000000000200000700000,
000000000000000000000000000000000000000000000000,
000000000000000000800000000000000000000000000000,
#GOGOSTART
100000100100200000000000200000000000100000100000,
100100100000100000000000100100100000100000100000,
100000100100200000000000200000000000100000100000,
100100100000100000000000100100100000100000100000,
200000200200100000000000100000000000200000200000,
200200200000200000000000100100100000100000100000,
100100100000100000000000700000000000000000000000,
000000000000800000000000000000000000000000000000,
100000100100200000000000200000000000100000100000,
100100100000100000000000100100100000100000100000,
100000100100200000000000200000000000100000100000,
100100100000100000000000100100100000100000100000,
200000200200100000000000100000000000200000200000,
100000200200200000100000200200200000100000200000,
100000100000200000300000000000000000100000000000,
600000000000000000000000000000000008000000000000,
100000100100200000100100200000000000100100100000,
100000100100200000100100200000000000100100100000,
200000100100200000100100100000000000100100100000,
200000100100200000100100100000000000100100100000,
100000100100200000100100200000000000100100100000,
100000100100200000100100200000000000100100100000,
100000100100200000100100200000000000200100100000,
500000000000000000000000000000000008000000000000,
#GOGOEND
100000000000100000000000200000000000200000000000,
200000100000200000100000200000000000000000000000,
100000000000100000000000200000000000200000000000,
200000100000200000100000200000000000200000000000,
200000000000100000000000200000000000200000000000,
200000100000200000100000200000000000000000000000,
#BPMCHANGE 150
100000000000000000300000000000000000000000000000,
#MEASURE 3/4
#BPMCHANGE 112.5
#SCROLL 1.3
100000000000300000000000000000000000,
#MEASURE 4/4
#BPMCHANGE 62.5
#SCROLL 2.4
300000000000000000000022100000000000000000000000,
#END
COURSE:Hard
LEVEL:5
BALLOON:12,12
SCOREINIT:710
SCOREDIFF:200
#START
100000000000100000000000000000100000000000100000,
100000000000100000000000000000100000100000000000,
200000000000200000000000000000200000000000200000,
200000000000200000000000000000200000200000000000,
100000000000100000000000000000100000000000100000,
100000000000100000000000000000100000100000000000,
200000000000200000000000000000000000400000000000,
400000000000000000000000400000000000000000000000,
#GOGOSTART
100000100100100000000000100000000000000000000000,
100000200000100000200000100000000000000000000000,
100000100100100000000000100000000000000000000000,
100000200000100000200000100000000000000000000000,
100000100100100000000000100000000000000000000000,
100000200000100000200000100000000000000000000000,
100000100100100000300000000000000000000000000000,
100000100100100000300000000000000000000000000000,
200000200200200000000000200000000000000000000000,
200000100000200000100000200000000000000000000000,
200000200200200000000000200000000000000000000000,
200000100000200000100000200000000000000000000000,
200000200200200000000000200000000000000000000000,
200000100000200000100000200000000000000000000000,
200000200200200000400000000000000000000000000000,
200000200200200000400000000000000000000000000000,
#GOGOEND
100000100000100000000000100000000000000000000000,
100000100000100000000000100000000000000000000000,
200000200000200000000000200000000000000000000000,
200000200000200000000000200000000000000000000000,
000000000000100000100000100000000000100000200000,
100000200000100000200000100000000000000000000000,
000000000000100000100000100000000000100000200000,
100000200000100000200000100000000000000000300000,
000000000000000000000000200000200000200000000000,
200000100000200000100000200000000000000000000000,
000000000000000000000000200000200000200000000000,
200000100000200000100000200000000000000000000000,
000000000000000000000000200000200000200000000000,
200000100000200000100000200000000000000000700000,
000000000000000000000000000000000000000000000000,
000000000000000000000000800000000000000000000000,
#GOGOSTART
300000000000400000000000500000000000000000000000,
000000000800000000000000100100100000100000000000,
300000000000400000000000500000000000000000000000,
000000000800000000000000100100100000100000000000,
400000000000300000000000500000000000000000000000,
000000000800000000000000100100100000100000000000,
300000000000400000000000700000000000000000000000,
000000000000000000000800000000000000000000000000,
300000000000400000000000500000000000000000000000,
000000000800000000000000200200200000200000000000,
300000000000400000000000500000000000000000000000,
000000000800000000000000200200200000200000000000,
400000000000300000000000500000000000000000000000,
000000000800000000000000000000000000100000000000,
100000000000000000400000000000000000400000000000,
600000000000000000000000000000000800000000000000,
100000100000100000200200200000000000100000000000,
100000100000100000200200200000000000100000000000,
100000100000100000200200200000000000100000000000,
100000100000100000200200200000000000200000000000,
200000200000200000100100100000000000200000000000,
200000200000200000100100100000000000200000000000,
200000200000200000100100100000000000200000000000,
500000000000000000000000000000000800000000000000,
#GOGOEND
100000000000100000000000200000000000200000000000,
200000100000200000100000200000000000200000000000,
100000000000100000000000200000000000200000000000,
200000100000200000100000200000000000200000000000,
100000000000100000000000200000000000200000000000,
200000100000200000100000200000000000200000000000,
#BPMCHANGE 150
100000000000000000300000000000000000000000000000,
#MEASURE 3/4
#BPMCHANGE 112.5
#SCROLL 1.3
100000000000300000000000000000000000,
#MEASURE 4/4
#BPMCHANGE 62.5
#SCROLL 2.4
300000000000000000000000000000000000000000000000,
#END
COURSE:Normal
LEVEL:4
BALLOON:9,8
SCOREINIT:890
SCOREDIFF:333
#START
100000000000000000000000100000000000000000000000,
100000000000000000000000000000000000000000000000,
200000000000000000000000200000000000000000000000,
200000000000000000000000000000000000000000000000,
100000000000000000000000100000000000000000000000,
100000000000000000000000000000000000000000000000,
200000000000000000000000000000000000400000000000,
400000000000000000000000400000000000000000000000,
#GOGOSTART
000000000000100000000000100000000000000000000000,
100000000000100000000000100000000000000000000000,
100000000000000000000000000000000000100000000000,
100000000000100000000000100000000000000000000000,
100000000000000000000000000000000000100000000000,
100000000000100000000000100000000000000000000000,
100000000000000000300000000000000000000000000000,
100000000000000000300000000000000000000000000000,
000000000000200000000000200000000000000000000000,
200000000000200000000000200000000000000000000000,
200000000000000000000000000000000000200000000000,
200000000000200000000000200000000000000000000000,
200000000000000000000000000000000000200000000000,
200000000000200000000000200000000000000000000000,
200000000000000000400000000000000000000000000000,
200000000000000000400000000000000000000000000000,
#GOGOEND
100000000000100000000000100000000000000000000000,
100000000000000000000000100000000000000000000000,
100000000000100000000000100000000000000000000000,
200000000000000000000000200000000000000000000000,
000000000000100000000000100000000000000000000000,
100000000000100000000000100000000000000000000000,
000000000000200000000000200000000000000000000000,
200000000000200000000000200000000000000000400000,
000000000000000000000000200000000000200000000000,
200000000000000000000000200000000000000000000000,
000000000000000000000000200000000000200000000000,
200000000000000000000000200000000000000000000000,
000000000000000000000000100000000000100000000000,
100000000000000000000000100000000000000000700000,
000000000000000000000000000000000000000000000000,
000000000000000000000000000000800000000000000000,
#GOGOSTART
300000000000300000000000500000000000000000000000,
000000800000000000000000100000100000100000000000,
300000000000300000000000500000000000000000000000,
000000800000000000000000100000100000100000000000,
400000000000400000000000500000000000000000000000,
000000800000000000000000100000100000100000000000,
300000000000300000000000700000000000000000000000,
000000000000000000800000000000000000000000000000,
300000000000300000000000500000000000000000000000,
000000800000000000000000200000200000200000000000,
300000000000300000000000500000000000000000000000,
000000800000000000000000200000200000200000000000,
400000000000400000000000500000000000000000000000,
000000800000000000000000000000000000100000000000,
100000000000000000300000000000000000100000000000,
600000000000000000000000000000800000000000000000,
000000000000100000100000100000000000000000000000,
000000000000100000100000100000000000000000000000,
000000000000100000100000100000000000000000000000,
000000000000100000100000100000000000000000000000,
000000000000200000200000200000000000000000000000,
000000000000200000200000200000000000000000000000,
000000000000200000200000200000000000000000000000,
500000000000000000000000000000800000000000000000,
#GOGOEND
000000000000100000000000100000000000000000000000,
100000000000100000000000100000000000000000000000,
100000000000000000000000000000000000100000000000,
100000000000100000000000100000000000000000000000,
100000000000000000000000000000000000100000000000,
100000000000100000000000100000000000000000000000,
#BPMCHANGE 150
100000000000000000300000000000000000000000000000,
#MEASURE 3/4
#BPMCHANGE 112.5
#SCROLL 1.3
100000000000300000000000000000000000,
#MEASURE 4/4
#BPMCHANGE 62.5
#SCROLL 2.4
300000000000000000000000000000000000000000000000,
#END
COURSE:Easy
LEVEL:2
BALLOON:6,7
SCOREINIT:840
SCOREDIFF:540
#START
100000000000000000000000000000000000000000000000,
100000000000000000000000000000000000000000000000,
200000000000000000000000000000000000000000000000,
200000000000000000000000000000000000000000000000,
100000000000000000000000000000000000000000000000,
100000000000000000000000000000000000000000000000,
200000000000000000000000000000000000000000000000,
400000000000000000000000400000000000000000000000,
#GOGOSTART
000000000000000000000000100000000000000000000000,
100000000000000000000000100000000000000000000000,
100000000000000000000000000000000000000000000000,
100000000000000000000000100000000000000000000000,
100000000000000000000000000000000000000000000000,
100000000000000000000000100000000000000000000000,
100000000000000000300000000000000000000000000000,
100000000000000000300000000000000000000000000000,
000000000000000000000000100000000000000000000000,
100000000000000000000000100000000000000000000000,
100000000000000000000000000000000000000000000000,
100000000000000000000000100000000000000000000000,
100000000000000000000000000000000000000000000000,
100000000000000000000000100000000000000000000000,
200000000000000000400000000000000000000000000000,
200000000000000000400000000000000000000000000000,
#GOGOEND
100000000000000000000000100000000000000000000000,
100000000000000000000000000000000000000000000000,
100000000000000000000000100000000000000000000000,
100000000000000000000000000000000000000000000000,
000000000000000000000000100000000000000000000000,
100000000000000000000000100000000000000000000000,
000000000000000000000000100000000000000000000000,
100000000000000000000000100000000000000000300000,
000000000000000000000000200000000000000000000000,
200000000000000000000000200000000000000000000000,
000000000000000000000000200000000000000000000000,
200000000000000000000000200000000000000000000000,
000000000000000000000000200000000000000000000000,
200000000000000000000000200000000000000000900000,
000000000000000000000000000000000000000000000000,
800000000000000000000000000000000000000000000000,
#GOGOSTART
300000000000000000000000500000000000000000000000,
800000000000000000000000100000000000000000000000,
300000000000000000000000500000000000000000000000,
800000000000000000000000100000000000000000000000,
400000000000000000000000500000000000000000000000,
800000000000000000000000100000000000000000000000,
300000000000000000000000700000000000000000000000,
000000000000000000800000000000000000000000000000,
300000000000000000000000500000000000000000000000,
800000000000000000000000100000000000000000000000,
300000000000000000000000500000000000000000000000,
800000000000000000000000100000000000000000000000,
400000000000000000000000500000000000000000000000,
800000000000000000000000100000000000000000000000,
100000000000000000300000000000000000000000000000,
600000000000000000000000000000800000000000000000,
100000000000000000000000100000000000000000000000,
100000000000000000000000000000000000000000000000,
100000000000000000000000100000000000000000000000,
100000000000000000000000000000000000000000000000,
100000000000000000000000100000000000000000000000,
100000000000000000000000000000000000000000000000,
100000000000000000000000100000000000000000000000,
500000000000000000000000000000800000000000000000,
#GOGOEND
000000000000000000000000100000000000000000000000,
100000000000000000000000100000000000000000000000,
100000000000000000000000000000000000000000000000,
100000000000000000000000100000000000000000000000,
100000000000000000000000000000000000000000000000,
100000000000000000000000100000000000000000000000,
#BPMCHANGE 150
100000000000000000300000000000000000000000000000,
#MEASURE 3/4
#BPMCHANGE 112.5
#SCROLL 1.3
100000000000300000000000000000000000,
#MEASURE 4/4
#BPMCHANGE 62.5
#SCROLL 2.4
300000000000000000000000000000000000000000000000,
#END