Files
ESE/01 Pop/A Perfect Sky/A Perfect Sky.tja
T
2023-06-15 19:15:39 -05:00

190 lines
6.2 KiB
Plaintext

//TJADB Project
TITLE:A Perfect Sky
TITLEJA:A Perfect Sky
SUBTITLE:--BONNIE PINK/ANESSA
BPM:90
WAVE:A Perfect Sky.ogg
OFFSET:-2.787
DEMOSTART:56.120
COURSE:Oni
LEVEL:5
SCOREINIT:970
SCOREDIFF:290
#START
100100100100100000100100000100000100100000000000,
100100100100100000100200000200000200100000000000,
100100200000100000100100000200000100200000000000,
100100200000100000100100000000500000000000000000,
000000000000000000000000000000000008000000000000,
100000200000100200000000100000200000100200000000,
100000200000100200000000100000100100000100200000,
100000200000100200000000200000100000200100000000,
100100100100200000000000200100100100200000000000,
100100100100200000000000100100100000200000000000,
100100100100200000000000200100100100200000000000,
100100100100200000000000100000200000100200000000,
100100100100200000000000200100100100200000000000,
100100100100200000000000100100100000200000000000,
100100100100200000000000200100100100200000000000,
200200100100100100200200100100200200100100100100,
100000100000200000000000100000100000200000200000,
100000200000100000200000100000100000200000100000,
000000200000100100200200100000100000200000000000,
100000100000200000100000100010001000200000000000,
#GOGOSTART
100100100100100000100100000100000100100000000000,
100100100100100000100200000200000200100000000000,
100100200000100000100100000200000100200000000000,
100100200000100000100100000200000200100000000000,
100100200200100100200100000200000200100100200000,
100100200200100100200100000200000200100100200000,
100100200000100000200100000200000100200000000000,
100100200000100000200100000500000000000000008000,
#GOGOEND
#END
COURSE:Hard
LEVEL:6
SCOREINIT:1100
SCOREDIFF:300
#START
100000100100100000000100000000000000000000000000,
100000100100100000000200000200000000200000000000,
100100100000100000100000000100000100100000000000,
100100100000100000100100000000500000000000000000,
000000000000000000000000000000000800000000000000,
100000100000200000000000100000100000200000000000,
100000100000200000000000100000100000200000200000,
100000100000200000000000200000100000100100000000,
100100100100100000000000100100100100100000000000,
100100100100100000000000100000100000200000000000,
200200200200200000000000200200200200200000000000,
200200200200200000000000200000200000200200000000,
100100100100100000000000100100100100100000000000,
100100100100100000000000100000100000200000000000,
200200200200200000000000200200200200200000000000,
200200200000200200200000100100100000100100100000,
100000100000200000000000100000100000200000000000,
100000200000100000200000000000100000200000000000,
100000000000100000000000100000100000200000000000,
100000100000200000200000100010001000100000000000,
#GOGOSTART
100000100100100000100100000100000100100000000000,
100000100100100000100100000100000100100000000000,
200200200000200000200200000200000200200000000000,
200200200000200000200200000200000200200000000000,
100000100100100000100100000100000100100000000000,
100000100100100000100100000100000100100000000000,
200200200000200000200200000200000200200000000000,
200200200000200000200200000500000000000000800000,
#GOGOEND
#END
COURSE:Normal
LEVEL:5
BALLOON:6
SCOREINIT:1250
SCOREDIFF:400
#START
100000100000100000000100000000000000000000000000,
100000100000100000000200000000000000200000000000,
100000000000100000100000000100000000100000000000,
100000000000100000100000000000500000000000000000,
000000000000000000000000000000000800000000000000,
100000000000200000000000100000100000200000000000,
100000000000200000000000100000100000200000000000,
100000000000200000000000100000000000100100000000,
100100100000100000000000100100100000100000000000,
100100100000100000000000100000100000200000000000,
200200200000200000000000200200200000200000000000,
200200200000200000000000000000400000000400000000,
100100100000100000000000100100100000100000000000,
100100100000100000000000100000100000200000000000,
200200200000200000000000200200200000200000000000,
100000000000200000000000100000100000200000000000,
100000000000200000000000100000000000200000000000,
100000100000200000000000100000100000200000000000,
100000000000100000100000100000000000200000000000,
700000000000000000000000000000800000000000000000,
#GOGOSTART
100000100000100000100000000000000000100000000000,
100000100000100000100000000000000000100000000000,
200000200000200000200000000000000000200000000000,
200000200000200000200000000000000000200000000000,
100000100000100000100000000000000000100000000000,
100000100000100000100000000000000000100000000000,
200000200000200000200000000000000000200000000000,
200000200000200000200000000500000000000000800000,
#GOGOEND
#END
COURSE:Easy
LEVEL:4
BALLOON:5
SCOREINIT:1330
SCOREDIFF:840
#START
100000000000000000000100000000000000000000000000,
100000000000000000000200000000000000000000000000,
100000000000000000000100000000000000000000000000,
100000000000000000000000000000500000000000000000,
000000000000000000000000800000000000000000000000,
100000000000200000000000000000000000200000000000,
100000000000200000000000000000000000200000000000,
100000000000200000000000000000000000000000000000,
100000000000200000000000100000000000200000000000,
500000000000000000000000800000000000000000000000,
100000000000200000000000000000000000200000000000,
100000000000200000000000000000000000000000000000,
100000000000200000000000100000000000200000000000,
500000000000000000000000800000000000000000000000,
100000000000200000000000000000000000200000000000,
100000000000200000000000000000000000200000000000,
100000000000100000000000000000000000000000000000,
100000000000100000000000200000000000200000000000,
500000000000000000000000800000000000000000000000,
700000000000000000000000000000800000000000000000,
#GOGOSTART
100000000000100000100000000000000000100000000000,
100000000000100000100000000000000000100000000000,
200000000000200000200000000000000000200000000000,
200000000000200000200000000000000000200000000000,
100000000000100000100000000000000000100000000000,
100000000000100000100000000000000000100000000000,
200000000000200000200000000000000000200000000000,
200000000000200000200000000500000000000000800000,
#GOGOEND
#END