1122 lines
12 KiB
Plaintext
1122 lines
12 KiB
Plaintext
//TJADB Project
|
|
TITLE:ABC
|
|
TITLEJA:ABC
|
|
SUBTITLE:--The Jackson 5
|
|
BPM:187.833
|
|
WAVE:ABC.ogg
|
|
OFFSET:-3.848
|
|
DEMOSTART:26.686
|
|
|
|
COURSE:Oni
|
|
LEVEL:2
|
|
|
|
STYLE:Double
|
|
BALLOON:9
|
|
|
|
|
|
#START P1
|
|
|
|
|
|
,
|
|
00000001,
|
|
10102011,
|
|
01102001,
|
|
12121011,
|
|
,
|
|
,
|
|
00001110,
|
|
11012101,
|
|
02020201,
|
|
00112010,
|
|
00000001,
|
|
01102010,
|
|
00000001,
|
|
01112011,
|
|
01112000,
|
|
02,
|
|
00002003,
|
|
0330,
|
|
00020220,
|
|
00000004,
|
|
0440,
|
|
00000003,
|
|
00303002,
|
|
00102011,
|
|
21010500,
|
|
000000000000000000000000000000000008000000000000,
|
|
00000001,
|
|
0110,
|
|
01010120,
|
|
00000003,
|
|
00303002,
|
|
00101012,
|
|
11010120,
|
|
11210030,
|
|
#MEASURE 2/4
|
|
3,
|
|
#MEASURE 4/4
|
|
0202,
|
|
00222001,
|
|
01201121,
|
|
0332,
|
|
0202,
|
|
00222020,
|
|
10112011,
|
|
01102010,
|
|
11112015,
|
|
000000000000000000000008000000000000000000000000,
|
|
12,
|
|
1120,
|
|
11112011,
|
|
02020202,
|
|
01112010,
|
|
02,
|
|
11112010,
|
|
0021,
|
|
10112010,
|
|
01011000,
|
|
00002001,
|
|
01112110,
|
|
00000004,
|
|
00404003,
|
|
0330,
|
|
01010120,
|
|
00000003,
|
|
00303002,
|
|
00102011,
|
|
21010700,
|
|
00000081,
|
|
00102121,
|
|
01102011,
|
|
01100000,
|
|
10101003,
|
|
00303001,
|
|
10102111,
|
|
0120,
|
|
,
|
|
00000001,
|
|
2120,
|
|
00000001,
|
|
0120,
|
|
3340,
|
|
|
|
|
|
#END
|
|
|
|
|
|
#START P2
|
|
|
|
|
|
,
|
|
,
|
|
02,
|
|
02,
|
|
02,
|
|
02020201,
|
|
01102011,
|
|
01012000,
|
|
,
|
|
00000002,
|
|
0121,
|
|
,
|
|
00000001,
|
|
01102000,
|
|
02,
|
|
00002001,
|
|
01112011,
|
|
01112000,
|
|
00000004,
|
|
00404003,
|
|
0330,
|
|
02020221,
|
|
00101003,
|
|
00303002,
|
|
00102011,
|
|
21010500,
|
|
000000000000000000000000000000000008000000000000,
|
|
,
|
|
,
|
|
00000001,
|
|
00101003,
|
|
00303002,
|
|
00101012,
|
|
11010120,
|
|
10210022,
|
|
#MEASURE 2/4
|
|
2021,
|
|
#MEASURE 4/4
|
|
01201121,
|
|
0444,
|
|
01201020,
|
|
00222000,
|
|
21212110,
|
|
21212110,
|
|
1120,
|
|
10112000,
|
|
1120,
|
|
11012111,
|
|
01102011,
|
|
01012120,
|
|
1120,
|
|
12,
|
|
10102002,
|
|
01102010,
|
|
12,
|
|
11112010,
|
|
1024,
|
|
02022001,
|
|
01112110,
|
|
00000103,
|
|
0330,
|
|
01010120,
|
|
00000004,
|
|
00404001,
|
|
00101003,
|
|
00303002,
|
|
00102011,
|
|
21010700,
|
|
0008,
|
|
,
|
|
1110,
|
|
00002121,
|
|
01102111,
|
|
01102000,
|
|
,
|
|
00000001,
|
|
10102111,
|
|
0120,
|
|
00000011,
|
|
00102001,
|
|
0120,
|
|
3340,
|
|
|
|
|
|
#END
|
|
|
|
|
|
STYLE:Single
|
|
BALLOON:9
|
|
SCOREINIT:540
|
|
SCOREDIFF:130
|
|
|
|
|
|
#START
|
|
|
|
|
|
000000000000000000000000000000000000000000000000,
|
|
000000000000000000000000000000000000000000100000,
|
|
100000000000100000000000200000000000100000100000,
|
|
000000100000100000000000200000000000000000100000,
|
|
100000200000100000200000100000000000100000100000,
|
|
000000200000000000200000000000200000000000100000,
|
|
000000100000100000000000200000000000100000100000,
|
|
000000100000100000000000200000100000100000000000,
|
|
100000100000000000100000200000100000000000100000,
|
|
000000200000000000200000000000200000100000100000,
|
|
000000000000100000100000200000000000100000200000,
|
|
000000000000100000000000200000000000100000100000,
|
|
000000100000100000000000200000000000200000100000,
|
|
000000100000100000000000200000000000200000100000,
|
|
000000100000100000000000200000100000000000100000,
|
|
000000100000100000000000200000100000000000100000,
|
|
000000100000100000100000200000000000100000100000,
|
|
000000100000100000100000200000000000000000300000,
|
|
000000000000300000000000300000000000000000200000,
|
|
000000000000200000000000200000000000000000100000,
|
|
000000000000100000000000100000000000000000400000,
|
|
000000000000400000000000400000000000000000100000,
|
|
000000000000100000000000100000000000000000300000,
|
|
000000000000300000000000300000000000000000100000,
|
|
000000000000100000000000200000000000100000100000,
|
|
200000100000000000100000000000500000000000000000,
|
|
000000000000000000000000000000000008000000000000,
|
|
000000000000000000100000000000100000200000100000,
|
|
000000000000100000000000100000000000000000000000,
|
|
000000100000000000100000000000100000200000100000,
|
|
000000000000100000000000100000000000000000300000,
|
|
000000000000300000000000300000000000000000100000,
|
|
000000000000100000000000100000000000100000200000,
|
|
100000100000000000100000000000100000200000000000,
|
|
100000100000200000100000000000100000200000100000,
|
|
#MEASURE 2/4
|
|
200000000000200000100000,
|
|
#MEASURE 4/4
|
|
000000100000200000000000100000100000200000100000,
|
|
000000000000400000000000400000000000200000100000,
|
|
000000100000200000000000100000100000200000100000,
|
|
000000000000300000000000300000000000200000000000,
|
|
200000100000200000100000200000100000100000000000,
|
|
200000100000200000100000200000100000100000000000,
|
|
200000000000100000100000200000000000100000100000,
|
|
000000100000100000000000200000000000100000000000,
|
|
100000100000100000100000200000000000100000100000,
|
|
000000100000000000100000200000100000100000100000,
|
|
000000100000100000000000200000000000100000100000,
|
|
000000100000000000100000200000100000200000000000,
|
|
100000000000100000100000200000000000100000100000,
|
|
000000200000000000200000000000200000000000200000,
|
|
000000100000100000100000200000000000100000200000,
|
|
000000100000100000000000200000000000100000000000,
|
|
100000100000100000100000200000000000100000000000,
|
|
100000100000100000100000200000000000100000000000,
|
|
100000000000100000000000200000000000100000100000,
|
|
000000200000000000200000200000000000100000100000,
|
|
000000100000100000100000200000000000100000100000,
|
|
000000100000100000100000200000000000000000300000,
|
|
000000000000300000000000300000000000000000000000,
|
|
000000000000000000000000000000000000000000200000,
|
|
000000000000100000000000100000000000000000000000,
|
|
000000000000000000000000000000000000000000100000,
|
|
000000000000100000000000100000000000000000300000,
|
|
000000000000300000000000300000000000000000200000,
|
|
000000000000100000000000100000000000100000100000,
|
|
200000100000000000100000000000700000000000000000,
|
|
000000000000000000000000000000000000800000100000,
|
|
000000000000100000000000200000100000200000100000,
|
|
000000100000100000000000200000000000100000100000,
|
|
000000100000100000000000200000100000200000100000,
|
|
000000100000100000000000200000100000100000100000,
|
|
000000100000100000000000200000000000000000100000,
|
|
100000000000100000000000200000100000100000100000,
|
|
000000000000100000000000200000000000000000100000,
|
|
100000000000100000000000200000000000100000100000,
|
|
000000000000100000000000200000000000000000100000,
|
|
200000000000100000000000200000000000100000100000,
|
|
000000000000100000000000200000000000000000100000,
|
|
000000000000100000000000200000000000000000000000,
|
|
300000000000300000000000400000000000000000000000,
|
|
|
|
|
|
#END
|
|
|
|
|
|
COURSE:Hard
|
|
LEVEL:2
|
|
|
|
STYLE:Double
|
|
BALLOON:9
|
|
SCOREINIT:770
|
|
SCOREDIFF:190
|
|
|
|
|
|
#START P1
|
|
|
|
|
|
,
|
|
00000001,
|
|
10102011,
|
|
01102001,
|
|
12121011,
|
|
,
|
|
,
|
|
00001110,
|
|
11012101,
|
|
02020201,
|
|
00112010,
|
|
00000001,
|
|
01102010,
|
|
00000001,
|
|
01112011,
|
|
01112000,
|
|
0020,
|
|
00002003,
|
|
0330,
|
|
00020220,
|
|
00000004,
|
|
0440,
|
|
00000003,
|
|
00303002,
|
|
00102011,
|
|
21010500,
|
|
0008,
|
|
00000001,
|
|
0110,
|
|
01010120,
|
|
00000003,
|
|
00303002,
|
|
00101012,
|
|
11010120,
|
|
11210030,
|
|
#MEASURE 2/4
|
|
3,
|
|
#MEASURE 4/4
|
|
0202,
|
|
00222001,
|
|
01201121,
|
|
00303020,
|
|
0202,
|
|
00222020,
|
|
10112011,
|
|
01102010,
|
|
11112015,
|
|
0080,
|
|
12,
|
|
1120,
|
|
11112011,
|
|
02020202,
|
|
01112010,
|
|
02,
|
|
11112010,
|
|
0021,
|
|
10112010,
|
|
01011000,
|
|
00002001,
|
|
01112110,
|
|
00000004,
|
|
00404003,
|
|
0330,
|
|
01010120,
|
|
00000003,
|
|
00303002,
|
|
00102011,
|
|
21010700,
|
|
00000081,
|
|
00102121,
|
|
01102011,
|
|
01100000,
|
|
10101003,
|
|
00303001,
|
|
10102111,
|
|
0120,
|
|
,
|
|
00000001,
|
|
2120,
|
|
00000001,
|
|
0120,
|
|
3340,
|
|
|
|
|
|
#END
|
|
|
|
|
|
#START P2
|
|
|
|
|
|
,
|
|
,
|
|
0020,
|
|
0020,
|
|
0020,
|
|
02020201,
|
|
01102011,
|
|
01012000,
|
|
,
|
|
00000002,
|
|
0121,
|
|
,
|
|
00000001,
|
|
01102000,
|
|
0020,
|
|
00002001,
|
|
01112011,
|
|
01112000,
|
|
00000004,
|
|
00404003,
|
|
0330,
|
|
02020221,
|
|
00101003,
|
|
00303002,
|
|
00102011,
|
|
21010500,
|
|
0008,
|
|
,
|
|
,
|
|
00000001,
|
|
00101003,
|
|
00303002,
|
|
00101012,
|
|
11010120,
|
|
10210022,
|
|
#MEASURE 2/4
|
|
2021,
|
|
#MEASURE 4/4
|
|
01201121,
|
|
0444,
|
|
01201020,
|
|
00222000,
|
|
21212110,
|
|
21212110,
|
|
1120,
|
|
10112000,
|
|
1120,
|
|
11012111,
|
|
01102011,
|
|
01012120,
|
|
1120,
|
|
12,
|
|
10102002,
|
|
01102010,
|
|
12,
|
|
11112010,
|
|
1024,
|
|
02022001,
|
|
00000004,
|
|
00404001,
|
|
00101003,
|
|
00303004,
|
|
00102011,
|
|
21010700,
|
|
00000080,
|
|
,
|
|
1110,
|
|
00002121,
|
|
01102111,
|
|
01102000,
|
|
,
|
|
00000001,
|
|
10102111,
|
|
0120,
|
|
00000011,
|
|
00102001,
|
|
0120,
|
|
3340,
|
|
|
|
|
|
#END
|
|
|
|
|
|
STYLE:Single
|
|
BALLOON:9
|
|
SCOREINIT:540
|
|
SCOREDIFF:130
|
|
|
|
|
|
#START
|
|
|
|
|
|
,
|
|
00000001,
|
|
10102011,
|
|
01102110,
|
|
11012101,
|
|
02020211,
|
|
00112012,
|
|
00102011,
|
|
01112011,
|
|
01112003,
|
|
00303002,
|
|
00202001,
|
|
00102011,
|
|
21010500,
|
|
00000080,
|
|
00010121,
|
|
00101000,
|
|
01010121,
|
|
00101003,
|
|
00303001,
|
|
00101012,
|
|
11010120,
|
|
11210121,
|
|
#MEASURE 2/4
|
|
2021,
|
|
#MEASURE 4/4
|
|
01201121,
|
|
00404021,
|
|
01201121,
|
|
0332,
|
|
21212110,
|
|
21212110,
|
|
20112011,
|
|
01102010,
|
|
11112011,
|
|
01012111,
|
|
01102011,
|
|
01102010,
|
|
11112010,
|
|
11112010,
|
|
10102011,
|
|
02022011,
|
|
01112011,
|
|
01112003,
|
|
0330,
|
|
00000002,
|
|
00101000,
|
|
00000001,
|
|
00101003,
|
|
00303002,
|
|
00101011,
|
|
21010700,
|
|
00000081,
|
|
00102121,
|
|
01102011,
|
|
01102121,
|
|
01102111,
|
|
01102001,
|
|
10102111,
|
|
00102001,
|
|
10102011,
|
|
00102001,
|
|
20102011,
|
|
00102001,
|
|
0120,
|
|
3340,
|
|
|
|
|
|
#END
|
|
|
|
|
|
COURSE:Normal
|
|
LEVEL:2
|
|
|
|
STYLE:Double
|
|
BALLOON:7
|
|
SCOREINIT:1060
|
|
SCOREDIFF:320
|
|
|
|
|
|
#START P1
|
|
|
|
|
|
,
|
|
,
|
|
1120,
|
|
2120,
|
|
1120,
|
|
5080,
|
|
02,
|
|
02,
|
|
1120,
|
|
5008,
|
|
,
|
|
2121,
|
|
,
|
|
1120,
|
|
02,
|
|
02,
|
|
1120,
|
|
1220,
|
|
,
|
|
2220,
|
|
2110,
|
|
,
|
|
1110,
|
|
3330,
|
|
2111,
|
|
1215,
|
|
,
|
|
83,
|
|
,
|
|
0121,
|
|
,
|
|
3330,
|
|
2111,
|
|
1215,
|
|
,
|
|
#MEASURE 2/4
|
|
84,
|
|
#MEASURE 4/4
|
|
,
|
|
0330,
|
|
1011,
|
|
0004,
|
|
0202,
|
|
0444,
|
|
02,
|
|
02,
|
|
02,
|
|
2220,
|
|
1120,
|
|
1121,
|
|
,
|
|
2220,
|
|
2121,
|
|
,
|
|
1121,
|
|
,
|
|
1121,
|
|
04,
|
|
1120,
|
|
2120,
|
|
,
|
|
2220,
|
|
2110,
|
|
24,
|
|
,
|
|
3330,
|
|
2111,
|
|
1217,
|
|
0008,
|
|
1120,
|
|
1120,
|
|
1102,
|
|
0202,
|
|
0200,
|
|
1121,
|
|
1220,
|
|
,
|
|
,
|
|
1121,
|
|
2120,
|
|
1120,
|
|
3340,
|
|
|
|
|
|
#END
|
|
|
|
|
|
#START P2
|
|
|
|
|
|
,
|
|
,
|
|
02,
|
|
02,
|
|
02,
|
|
2220,
|
|
1120,
|
|
2120,
|
|
02,
|
|
1110,
|
|
1121,
|
|
,
|
|
1121,
|
|
,
|
|
1120,
|
|
1220,
|
|
02,
|
|
02,
|
|
3330,
|
|
,
|
|
,
|
|
2220,
|
|
,
|
|
3330,
|
|
2111,
|
|
1215,
|
|
,
|
|
8,
|
|
2110,
|
|
,
|
|
1110,
|
|
3330,
|
|
2111,
|
|
1210,
|
|
1103,
|
|
#MEASURE 2/4
|
|
3,
|
|
#MEASURE 4/4
|
|
0202,
|
|
0004,
|
|
0202,
|
|
0330,
|
|
1212,
|
|
1100,
|
|
1120,
|
|
2120,
|
|
1120,
|
|
5080,
|
|
02,
|
|
02,
|
|
1121,
|
|
5008,
|
|
,
|
|
2121,
|
|
,
|
|
1121,
|
|
0003,
|
|
0120,
|
|
02,
|
|
22,
|
|
3330,
|
|
24,
|
|
,
|
|
2220,
|
|
1110,
|
|
3330,
|
|
2111,
|
|
1217,
|
|
0008,
|
|
0202,
|
|
0202,
|
|
02,
|
|
1120,
|
|
1120,
|
|
,
|
|
,
|
|
1121,
|
|
1220,
|
|
1121,
|
|
2120,
|
|
1120,
|
|
3340,
|
|
|
|
|
|
#END
|
|
|
|
|
|
STYLE:Single
|
|
BALLOON:7
|
|
SCOREINIT:860
|
|
SCOREDIFF:230
|
|
|
|
|
|
#START
|
|
|
|
|
|
,
|
|
,
|
|
1120,
|
|
1210,
|
|
1120,
|
|
5080,
|
|
1120,
|
|
1210,
|
|
1120,
|
|
5008,
|
|
12,
|
|
2120,
|
|
12,
|
|
2120,
|
|
1120,
|
|
1210,
|
|
1121,
|
|
1210,
|
|
3330,
|
|
,
|
|
2110,
|
|
,
|
|
1110,
|
|
3330,
|
|
2111,
|
|
1215,
|
|
,
|
|
84,
|
|
2110,
|
|
03,
|
|
1110,
|
|
3330,
|
|
2111,
|
|
1215,
|
|
0,
|
|
#MEASURE 2/4
|
|
08,
|
|
#MEASURE 4/4
|
|
1212,
|
|
0440,
|
|
1212,
|
|
0330,
|
|
1212,
|
|
1210,
|
|
1120,
|
|
1210,
|
|
1120,
|
|
1220,
|
|
1120,
|
|
1210,
|
|
1121,
|
|
5008,
|
|
1121,
|
|
,
|
|
1121,
|
|
,
|
|
1121,
|
|
0120,
|
|
1120,
|
|
1210,
|
|
3330,
|
|
,
|
|
2110,
|
|
,
|
|
1110,
|
|
3330,
|
|
2111,
|
|
1217,
|
|
0008,
|
|
02,
|
|
1120,
|
|
12,
|
|
1120,
|
|
1110,
|
|
1121,
|
|
1120,
|
|
1121,
|
|
2120,
|
|
1121,
|
|
2120,
|
|
2110,
|
|
3340,
|
|
|
|
|
|
#END
|
|
|
|
|
|
COURSE:Easy
|
|
LEVEL:2
|
|
|
|
STYLE:Double
|
|
BALLOON:5
|
|
SCOREINIT:990
|
|
SCOREDIFF:320
|
|
|
|
|
|
#START P1
|
|
|
|
|
|
,
|
|
,
|
|
12,
|
|
1120,
|
|
12,
|
|
,
|
|
02,
|
|
02,
|
|
12,
|
|
,
|
|
12,
|
|
,
|
|
12,
|
|
,
|
|
12,
|
|
1120,
|
|
02,
|
|
,
|
|
1110,
|
|
,
|
|
1110,
|
|
,
|
|
1110,
|
|
1110,
|
|
2220,
|
|
1115,
|
|
,
|
|
8,
|
|
1110,
|
|
0011,
|
|
,
|
|
1110,
|
|
2220,
|
|
1115,
|
|
08,
|
|
#MEASURE 2/4
|
|
3,
|
|
#MEASURE 4/4
|
|
0202,
|
|
0003,
|
|
,
|
|
0440,
|
|
0101,
|
|
,
|
|
12,
|
|
1120,
|
|
02,
|
|
02,
|
|
12,
|
|
1120,
|
|
02,
|
|
,
|
|
1212,
|
|
,
|
|
1122,
|
|
,
|
|
1120,
|
|
0020,
|
|
12,
|
|
1120,
|
|
,
|
|
2220,
|
|
1110,
|
|
,
|
|
,
|
|
1110,
|
|
2220,
|
|
1117,
|
|
0,
|
|
81,
|
|
1110,
|
|
1,
|
|
1,
|
|
1110,
|
|
11,
|
|
1120,
|
|
11,
|
|
1120,
|
|
11,
|
|
1120,
|
|
1110,
|
|
3330,
|
|
|
|
|
|
#END
|
|
|
|
|
|
#START P2
|
|
|
|
|
|
,
|
|
,
|
|
02,
|
|
02,
|
|
02,
|
|
58,
|
|
12,
|
|
1120,
|
|
02,
|
|
5008,
|
|
02,
|
|
2121,
|
|
02,
|
|
1120,
|
|
02,
|
|
02,
|
|
12,
|
|
1120,
|
|
,
|
|
2220,
|
|
,
|
|
2220,
|
|
,
|
|
1110,
|
|
2220,
|
|
1115,
|
|
,
|
|
8011,
|
|
,
|
|
,
|
|
1110,
|
|
1110,
|
|
2220,
|
|
1115,
|
|
08,
|
|
#MEASURE 2/4
|
|
,
|
|
#MEASURE 4/4
|
|
,
|
|
0330,
|
|
0202,
|
|
02,
|
|
12,
|
|
1120,
|
|
02,
|
|
02,
|
|
12,
|
|
5008,
|
|
,
|
|
1212,
|
|
,
|
|
1122,
|
|
02,
|
|
1120,
|
|
02,
|
|
02,
|
|
1110,
|
|
,
|
|
,
|
|
2220,
|
|
1110,
|
|
1110,
|
|
2220,
|
|
1117,
|
|
,
|
|
8,
|
|
,
|
|
01,
|
|
1110,
|
|
1110,
|
|
1120,
|
|
11,
|
|
1120,
|
|
11,
|
|
1110,
|
|
1120,
|
|
1110,
|
|
3330,
|
|
|
|
|
|
#END
|
|
|
|
|
|
STYLE:Single
|
|
BALLOON:5
|
|
SCOREINIT:980
|
|
SCOREDIFF:320
|
|
|
|
|
|
#START
|
|
|
|
|
|
,
|
|
,
|
|
12,
|
|
1120,
|
|
12,
|
|
58,
|
|
12,
|
|
1120,
|
|
12,
|
|
1,
|
|
14,
|
|
,
|
|
14,
|
|
,
|
|
12,
|
|
1120,
|
|
12,
|
|
03,
|
|
1110,
|
|
,
|
|
1110,
|
|
,
|
|
1110,
|
|
2220,
|
|
1110,
|
|
0005,
|
|
,
|
|
8,
|
|
1110,
|
|
,
|
|
1110,
|
|
1110,
|
|
2220,
|
|
0005,
|
|
00000800,
|
|
#MEASURE 2/4
|
|
3,
|
|
#MEASURE 4/4
|
|
,
|
|
0330,
|
|
,
|
|
0440,
|
|
,
|
|
0330,
|
|
12,
|
|
1120,
|
|
12,
|
|
00000800,
|
|
12,
|
|
1110,
|
|
12,
|
|
50000800,
|
|
12,
|
|
1110,
|
|
12,
|
|
1110,
|
|
04,
|
|
12,
|
|
12,
|
|
1110,
|
|
,
|
|
2220,
|
|
,
|
|
1110,
|
|
1110,
|
|
2220,
|
|
1117,
|
|
,
|
|
8,
|
|
1110,
|
|
,
|
|
2220,
|
|
,
|
|
1110,
|
|
1120,
|
|
1110,
|
|
1120,
|
|
1110,
|
|
1120,
|
|
1110,
|
|
3330,
|
|
|
|
|
|
#END
|
|
|