747 lines
11 KiB
Plaintext
747 lines
11 KiB
Plaintext
//TJADB Project
|
||
TITLE:ANTI-HERO
|
||
TITLEJA:ANTI-HERO
|
||
SUBTITLE:--SEKAI NO OWARI
|
||
SUBTITLEJA:SEKAI NO OWARI
|
||
BPM:105
|
||
WAVE:ANTI-HERO.ogg
|
||
OFFSET:-2.378
|
||
DEMOSTART:54.914
|
||
|
||
COURSE:Edit
|
||
LEVEL:9
|
||
BALLOON:18
|
||
SCOREINIT:530
|
||
SCOREDIFF:130
|
||
|
||
|
||
#START
|
||
|
||
|
||
,
|
||
1212,
|
||
1124,
|
||
100100200101001001200101,
|
||
100100200102002002100100,
|
||
100100200101001001200101,
|
||
10000010000110010010
|
||
#LYRIC You know I don’t give a damn about what’s “right”
|
||
0100,
|
||
100100200101001001200
|
||
#LYRIC Or pleasing everyone around me
|
||
200,
|
||
100010100010200000100010000000200000000000
|
||
#LYRIC Cause I know this world that brought us life
|
||
200100,
|
||
100100200101001101200
|
||
#LYRIC Wasn’t made to keep everyone happy
|
||
100,
|
||
10110120220210020000000
|
||
#LYRIC The rules and laws that countries come up with
|
||
1,
|
||
100100200101001001200200,
|
||
#LYRIC In front of me, they’re all shit
|
||
1000001001002001001000000000200000000000
|
||
#LYRIC ‘Cause there are people that I’ve gotta protect
|
||
10200000,
|
||
10010020010210110210
|
||
#LYRIC And if you get in my way, you’re dead
|
||
1202,
|
||
100000100100100000000010100000
|
||
#LYRIC You see I’m tired of trying to justify
|
||
100000100000100000,
|
||
100202100202111202100
|
||
#LYRIC Every decision that I make
|
||
202,
|
||
100000200020100010100020000000000000000
|
||
#LYRIC If it’s to save the people that I stand by
|
||
200200100,
|
||
10020210110200200200
|
||
#LYRIC You better believe what I say
|
||
1101,
|
||
001200101002000000000000,
|
||
#LYRIC “Stay in the lines, don’t make a scene”
|
||
100102100200101102100200,
|
||
#LYRIC Heroes try to tell us what’s right
|
||
10010210020110000020
|
||
#LYRIC But when push comes to shove, you’ll know what I mean
|
||
1100,
|
||
100102100201002100200
|
||
#LYRIC I’m ready to start a fight
|
||
221,
|
||
100001200102000100400100,
|
||
|
||
#GOGOSTART
|
||
#LYRIC I’m gonna be the anti-hero
|
||
100101200201001202100200,
|
||
#LYRIC Feared and hated by everybody
|
||
101101200201002002101100,
|
||
#LYRIC I’m gonna be the anti-hero
|
||
100101200201001202100202,
|
||
#LYRIC So
|
||
100000000000000000
|
||
#LYRIC So I can save you when the time comes
|
||
200200200200202020200000400000,
|
||
#LYRIC I’m gonna be the anti-hero
|
||
100111200201001202100200,
|
||
#LYRIC Feared and hated by everybody
|
||
111101200201002002101100,
|
||
#LYRIC I’m gonna be the anti-hero
|
||
100222100201001202111201,
|
||
#LYRIC Yeah
|
||
20
|
||
#LYRIC
|
||
00,
|
||
|
||
#GOGOEND
|
||
101102101102101102101200,
|
||
101102101102102102211100,
|
||
101102101102101102101202,
|
||
102211202112202222211100,
|
||
111222111222111222111200,
|
||
111222111222112112112112,
|
||
#BPMCHANGE 89.49
|
||
#SCROLL 1.17
|
||
000000
|
||
#BPMCHANGE 97.51
|
||
#SCROLL 1.07
|
||
000000
|
||
#BPMCHANGE 95.26
|
||
#SCROLL 1.1
|
||
000
|
||
#BPMCHANGE 86.86
|
||
#SCROLL 1.2
|
||
112
|
||
#BPMCHANGE 94.61
|
||
#SCROLL 1.1
|
||
112
|
||
#BPMCHANGE 101.08
|
||
#SCROLL 1.03
|
||
112,
|
||
#BARLINEOFF
|
||
#BPMCHANGE 90.67
|
||
#SCROLL 1.15
|
||
101020
|
||
#BPMCHANGE 77.42
|
||
#SCROLL 1.35
|
||
101020
|
||
#BPMCHANGE 84.03
|
||
#SCROLL 1.24
|
||
101020
|
||
#BPMCHANGE 87.78
|
||
#SCROLL 1.19
|
||
101020
|
||
#BPMCHANGE 81.87
|
||
#SCROLL 1.28
|
||
101020
|
||
#BPMCHANGE 69.37
|
||
#SCROLL 1.51
|
||
101020
|
||
#BPMCHANGE 84.03
|
||
#SCROLL 1.24
|
||
101020
|
||
#BPMCHANGE 106.83
|
||
#SCROLL 0.98
|
||
100100,
|
||
#MEASURE 1/8
|
||
#BPMCHANGE 92.49
|
||
#SCROLL 1.13
|
||
2,
|
||
#MEASURE 4/4
|
||
#BPMCHANGE 70.49
|
||
#SCROLL 1.48
|
||
3,
|
||
#BARLINEON
|
||
#BPMCHANGE 105
|
||
#SCROLL 1
|
||
11,
|
||
11,
|
||
1212,
|
||
1004,
|
||
|
||
#GOGOSTART
|
||
#LYRIC I’m gonna be the anti-hero
|
||
100101200201001202100200,
|
||
#LYRIC Feared and hated by everybody
|
||
101101200201002002101100,
|
||
#LYRIC I’m gonna be the anti-hero
|
||
100101200201001202100202,
|
||
#LYRIC So
|
||
100000000000000000
|
||
#LYRIC So I can save you when the time comes
|
||
200200200200202020200000400000,
|
||
#LYRIC I’m gonna be the anti-hero
|
||
100111200201001202100200,
|
||
#LYRIC Feared and hated by everybody
|
||
111101200201002002101100,
|
||
#LYRIC I’m gonna be the anti-hero
|
||
100222100201001202111201,
|
||
#LYRIC Yeah
|
||
20
|
||
#LYRIC
|
||
00,
|
||
|
||
#GOGOEND
|
||
101102101102101102101200,
|
||
101102101102102102211100,
|
||
101102101102101102101202,
|
||
102211202112202222211100,
|
||
|
||
|
||
#END
|
||
|
||
|
||
COURSE:Oni
|
||
LEVEL:8
|
||
BALLOON:18
|
||
SCOREINIT:660
|
||
SCOREDIFF:170
|
||
|
||
|
||
#START
|
||
|
||
|
||
,
|
||
1212,
|
||
1124,
|
||
1010201101012010,
|
||
1010201202021010,
|
||
1010201101012010,
|
||
7008,
|
||
1011201101012010,
|
||
1011101102100020,
|
||
1011201101012010,
|
||
1110221020100001,
|
||
1011201101012010,
|
||
100000200200100100100000002000000000000200100000,
|
||
1011201101012022,
|
||
1011100030000000,
|
||
1011202211102011,
|
||
1120111200000211,
|
||
1011011202020211,
|
||
0110111200000000,
|
||
1011102011111020,
|
||
1111201120000111,
|
||
2011201202102021,
|
||
1002102100000000,//24
|
||
|
||
#GOGOSTART
|
||
1011201101012010,
|
||
1110201202021020,
|
||
1022101101012010,
|
||
3000002222222040,
|
||
1011201101012010,
|
||
1111201202021020,
|
||
1022101101012010,
|
||
4,//32
|
||
|
||
#GOGOEND
|
||
1011201010012000,
|
||
1011201011012000,
|
||
1011201010012000,
|
||
1022102211012040,
|
||
1022101120221011,
|
||
2022101120221120,
|
||
#BPMCHANGE 89.49
|
||
#SCROLL 1.17
|
||
000000000000
|
||
#BPMCHANGE 97.51
|
||
#SCROLL 1.07
|
||
000000000000
|
||
#BPMCHANGE 95.26
|
||
#SCROLL 1.1
|
||
000000
|
||
#BPMCHANGE 86.86
|
||
#SCROLL 1.2
|
||
500000
|
||
#BPMCHANGE 94.61
|
||
#SCROLL 1.1
|
||
000000
|
||
#BPMCHANGE 101.08
|
||
#SCROLL 1.03
|
||
000008,
|
||
#BARLINEOFF
|
||
#BPMCHANGE 90.67
|
||
#SCROLL 1.15
|
||
000000
|
||
#BPMCHANGE 77.42
|
||
#SCROLL 1.35
|
||
500000
|
||
#BPMCHANGE 84.03
|
||
#SCROLL 1.24
|
||
000000
|
||
#BPMCHANGE 87.78
|
||
#SCROLL 1.19
|
||
000008
|
||
#BPMCHANGE 81.87
|
||
#SCROLL 1.28
|
||
000000
|
||
#BPMCHANGE 69.37
|
||
#SCROLL 1.51
|
||
500000
|
||
#BPMCHANGE 84.03
|
||
#SCROLL 1.24
|
||
000000
|
||
#BPMCHANGE 106.83
|
||
#SCROLL 0.98
|
||
000008,
|
||
#MEASURE 1/8
|
||
#BPMCHANGE 92.49
|
||
#SCROLL 1.13
|
||
000000,
|
||
#MEASURE 4/4
|
||
#BPMCHANGE 70.49
|
||
#SCROLL 1.48
|
||
3,
|
||
#BARLINEON
|
||
#BPMCHANGE 105
|
||
#SCROLL 1
|
||
11,
|
||
11,
|
||
1212,
|
||
1004,
|
||
|
||
#GOGOSTART
|
||
1011201101012010,
|
||
1110201202021020,
|
||
1022101101012010,
|
||
3000002222222040,
|
||
1011201101012010,
|
||
1111201202021020,
|
||
1022101101012010,
|
||
4,//53
|
||
|
||
#GOGOEND
|
||
1011201010012000,
|
||
1011201011012000,
|
||
1011201010012000,
|
||
1022102211012040,
|
||
|
||
|
||
#END
|
||
|
||
|
||
COURSE:Hard
|
||
LEVEL:6
|
||
BALLOON:14,10
|
||
SCOREINIT:740
|
||
SCOREDIFF:208
|
||
|
||
|
||
#START
|
||
|
||
|
||
,
|
||
1212,
|
||
1124,
|
||
1010101101011000,
|
||
1010101102022000,
|
||
1010101101011000,
|
||
7008,
|
||
1010101101011000,
|
||
2010201020200000,
|
||
1010101101011000,
|
||
21212200,
|
||
1000101101011010,
|
||
2010111002000000,
|
||
1000101101011010,
|
||
2011100030000000,
|
||
100000100000100000000500000000000000008000000000,
|
||
2020220200000000,
|
||
100000100000100000500000000000000000000008000000,
|
||
0700000000000800,
|
||
1011000011010000,
|
||
2220202020000110,
|
||
11211121,
|
||
1000100200000000,//24
|
||
|
||
#GOGOSTART
|
||
1010101101001010,
|
||
2020202202022020,
|
||
1010101101001010,
|
||
3000002220202040,
|
||
1011101101001010,
|
||
2220202202022020,
|
||
1011101101001010,
|
||
4,//32
|
||
|
||
#GOGOEND
|
||
11211020,
|
||
1010201010012000,
|
||
11211020,
|
||
1010202010012000,
|
||
22112211,
|
||
22112222,
|
||
#BPMCHANGE 87.5
|
||
#SCROLL 1.2
|
||
00000000000000000000000000005000
|
||
#BPMCHANGE 87.9
|
||
#SCROLL 1.19
|
||
00
|
||
#BPMCHANGE 95.41
|
||
#SCROLL 1.1
|
||
000000
|
||
#BPMCHANGE 101.94
|
||
#SCROLL 1.03
|
||
0000
|
||
#BPMCHANGE 101.62
|
||
00
|
||
#BPMCHANGE 91.25
|
||
#SCROLL 1.15
|
||
08,
|
||
#BARLINEOFF
|
||
00
|
||
#BPMCHANGE 90.66
|
||
#SCROLL 1.16
|
||
00
|
||
#BPMCHANGE 77.8
|
||
#SCROLL 1.35
|
||
5000
|
||
#BPMCHANGE 78.25
|
||
#SCROLL 1.34
|
||
00
|
||
#BPMCHANGE 84.64
|
||
#SCROLL 1.24
|
||
0000
|
||
#BPMCHANGE 84.27
|
||
#SCROLL 1.25
|
||
00
|
||
#BPMCHANGE 88.24
|
||
#SCROLL 1.19
|
||
0000
|
||
#BPMCHANGE 86.21
|
||
#SCROLL 1.22
|
||
00
|
||
#BPMCHANGE 82.03
|
||
#SCROLL 1.28
|
||
080000
|
||
#BPMCHANGE 69.56
|
||
#SCROLL 1.51
|
||
5000
|
||
#BPMCHANGE 69.85
|
||
#SCROLL 1.5
|
||
00
|
||
#BPMCHANGE 84.64
|
||
#SCROLL 1.24
|
||
0000
|
||
#BPMCHANGE 84.43
|
||
00
|
||
#BPMCHANGE 71.43
|
||
#SCROLL 1.47
|
||
0008
|
||
#BPMCHANGE 60
|
||
#SCROLL 1.75
|
||
0000,
|
||
#BPMCHANGE 70.03
|
||
#SCROLL 1.5
|
||
3,
|
||
#BARLINEON
|
||
#BPMCHANGE 105
|
||
#SCROLL 1
|
||
11,
|
||
11,
|
||
1212,
|
||
1004,//45
|
||
|
||
#GOGOSTART
|
||
1010101101001010,
|
||
2020202202022020,
|
||
1010101101001010,
|
||
3000002220202040,
|
||
1011101101001010,
|
||
2220202202022020,
|
||
1011101101001010,
|
||
4,//53
|
||
|
||
#GOGOEND
|
||
11211020,
|
||
1010201010012000,
|
||
11211020,
|
||
1010202010012000,
|
||
|
||
|
||
#END
|
||
|
||
COURSE:Normal
|
||
LEVEL:4
|
||
BALLOON:10,7,35
|
||
SCOREINIT:1030
|
||
SCOREDIFF:378
|
||
|
||
|
||
#START
|
||
|
||
|
||
,
|
||
11,
|
||
500000000000000000000008000000000000000000000000,
|
||
1000100101000000,
|
||
1000100101000000,
|
||
1000100101000000,
|
||
7008,
|
||
1000100101000000,
|
||
2220,
|
||
1000100101000000,
|
||
2220,
|
||
1000100101000000,
|
||
2220,
|
||
1000100101000000,
|
||
2230,
|
||
100000000000100000000500000000000008000000000000,
|
||
2000200200000000,
|
||
100000000000100000500000000000000000000008000000,
|
||
0700000000000800,
|
||
33,
|
||
2220,
|
||
11101010,
|
||
1,//24
|
||
|
||
#GOGOSTART
|
||
1000100100001000,
|
||
2000200200002000,
|
||
1000100100001000,
|
||
3,
|
||
1000100100001000,
|
||
2000200200002000,
|
||
1000100100001000,
|
||
4,//32
|
||
|
||
#GOGOEND
|
||
1212,
|
||
10201110,
|
||
1212,
|
||
10202220,
|
||
1212,
|
||
10201111,
|
||
#BPMCHANGE 87.5
|
||
#SCROLL 1.2
|
||
90000000000000000000000000000000
|
||
#BPMCHANGE 87.9
|
||
#SCROLL 1.19
|
||
00
|
||
#BPMCHANGE 95.41
|
||
#SCROLL 1.1
|
||
000000
|
||
#BPMCHANGE 101.94
|
||
#SCROLL 1.03
|
||
0000
|
||
#BPMCHANGE 101.62
|
||
00
|
||
#BPMCHANGE 91.25
|
||
#SCROLL 1.15
|
||
00,
|
||
#BARLINEOFF
|
||
00
|
||
#BPMCHANGE 90.66
|
||
#SCROLL 1.16
|
||
00
|
||
#BPMCHANGE 77.8
|
||
#SCROLL 1.35
|
||
0000
|
||
#BPMCHANGE 78.25
|
||
#SCROLL 1.34
|
||
00
|
||
#BPMCHANGE 84.64
|
||
#SCROLL 1.24
|
||
0000
|
||
#BPMCHANGE 84.27
|
||
#SCROLL 1.25
|
||
00
|
||
#BPMCHANGE 88.24
|
||
#SCROLL 1.19
|
||
0000
|
||
#BPMCHANGE 86.21
|
||
#SCROLL 1.22
|
||
00
|
||
#BPMCHANGE 82.03
|
||
#SCROLL 1.28
|
||
000900
|
||
#BPMCHANGE 69.56
|
||
#SCROLL 1.51
|
||
0000
|
||
#BPMCHANGE 69.85
|
||
#SCROLL 1.5
|
||
00
|
||
#BPMCHANGE 84.64
|
||
#SCROLL 1.24
|
||
0000
|
||
#BPMCHANGE 84.43
|
||
00
|
||
#BPMCHANGE 71.43
|
||
#SCROLL 1.47
|
||
0000
|
||
#BPMCHANGE 60
|
||
#SCROLL 1.75
|
||
0000,
|
||
#BPMCHANGE 70.03
|
||
#SCROLL 1.5
|
||
8,
|
||
#BARLINEON
|
||
#BPMCHANGE 105
|
||
#SCROLL 1
|
||
,
|
||
,
|
||
11,
|
||
1,//45
|
||
|
||
#GOGOSTART
|
||
1000100100001000,
|
||
2000200200002000,
|
||
1000100100001000,
|
||
3,
|
||
1000100100001000,
|
||
2000200200002000,
|
||
1000100100001000,
|
||
4,//53
|
||
|
||
#GOGOEND
|
||
1212,
|
||
10201110,
|
||
1212,
|
||
10202220,
|
||
|
||
|
||
#END
|
||
|
||
|
||
COURSE:Easy
|
||
LEVEL:3
|
||
BALLOON:5,5,27
|
||
SCOREINIT:890
|
||
SCOREDIFF:435
|
||
|
||
#START
|
||
|
||
|
||
,
|
||
,
|
||
500000000000000000000008000000000000000000000000,
|
||
1011,
|
||
1011,
|
||
1011,
|
||
7008,
|
||
1110,
|
||
11,
|
||
1110,
|
||
12,
|
||
1110,
|
||
11,
|
||
1110,
|
||
13,
|
||
1110,
|
||
12,
|
||
1111,
|
||
7008,
|
||
33,
|
||
2220,
|
||
500000000000000000000000000000000000000000000008,
|
||
,//24
|
||
|
||
#GOGOSTART
|
||
1000000100001000,
|
||
1000000100001000,
|
||
1000000100001000,
|
||
3,
|
||
1000000100001000,
|
||
1000000100001000,
|
||
1000000100001000,
|
||
3,//32
|
||
|
||
#GOGOEND
|
||
1110,
|
||
1110,
|
||
2220,
|
||
2222,
|
||
500000000000000000000000000000000008000000000000,
|
||
500000000000000000000000000000000008000000000000,
|
||
#BPMCHANGE 87.5
|
||
#SCROLL 1.2
|
||
90000000000000000000000000000000
|
||
#BPMCHANGE 87.9
|
||
#SCROLL 1.19
|
||
00
|
||
#BPMCHANGE 95.41
|
||
#SCROLL 1.1
|
||
000000
|
||
#BPMCHANGE 101.94
|
||
#SCROLL 1.03
|
||
0000
|
||
#BPMCHANGE 101.62
|
||
00
|
||
#BPMCHANGE 91.25
|
||
#SCROLL 1.15
|
||
00,
|
||
#BARLINEOFF
|
||
00
|
||
#BPMCHANGE 90.66
|
||
#SCROLL 1.16
|
||
00
|
||
#BPMCHANGE 77.8
|
||
#SCROLL 1.35
|
||
0000
|
||
#BPMCHANGE 78.25
|
||
#SCROLL 1.34
|
||
00
|
||
#BPMCHANGE 84.64
|
||
#SCROLL 1.24
|
||
0000
|
||
#BPMCHANGE 84.27
|
||
#SCROLL 1.25
|
||
00
|
||
#BPMCHANGE 88.24
|
||
#SCROLL 1.19
|
||
0000
|
||
#BPMCHANGE 86.21
|
||
#SCROLL 1.22
|
||
00
|
||
#BPMCHANGE 82.03
|
||
#SCROLL 1.28
|
||
000900
|
||
#BPMCHANGE 69.56
|
||
#SCROLL 1.51
|
||
0000
|
||
#BPMCHANGE 69.85
|
||
#SCROLL 1.5
|
||
00
|
||
#BPMCHANGE 84.64
|
||
#SCROLL 1.24
|
||
0000
|
||
#BPMCHANGE 84.43
|
||
00
|
||
#BPMCHANGE 71.43
|
||
#SCROLL 1.47
|
||
0000
|
||
#BPMCHANGE 60
|
||
#SCROLL 1.75
|
||
0000,
|
||
#BPMCHANGE 70.03
|
||
#SCROLL 1.5
|
||
8,
|
||
#BARLINEON
|
||
#BPMCHANGE 105
|
||
#SCROLL 1
|
||
,
|
||
,
|
||
11,
|
||
1,//45
|
||
|
||
#GOGOSTART
|
||
1000000100001000,
|
||
1000000100001000,
|
||
1000000100001000,
|
||
3,
|
||
1000000100001000,
|
||
1000000100001000,
|
||
1000000100001000,
|
||
3,//53
|
||
|
||
#GOGOEND
|
||
1110,
|
||
1110,
|
||
2220,
|
||
2222,
|
||
|
||
|
||
#END
|
||
|