177 lines
5.6 KiB
Plaintext
177 lines
5.6 KiB
Plaintext
//TJADB Project
|
|
TITLE:Ai no Uta
|
|
TITLEJA:愛のうた
|
|
SUBTITLE:--Kumi Koda
|
|
BPM:75
|
|
WAVE:Ai no Uta.ogg
|
|
OFFSET:-3.477
|
|
DEMOSTART:54.677
|
|
|
|
COURSE:Oni
|
|
LEVEL:5
|
|
SCOREINIT:1280
|
|
SCOREDIFF:330
|
|
|
|
|
|
#START
|
|
|
|
|
|
100000000000200000100000200100100000200000100000,
|
|
100000000000200000100000200100100000200000100000,
|
|
100000000000200000100000100100100000200200200000,
|
|
100000100000200000000000100100100000200000200000,
|
|
100000000000200000100000200100100000200000100000,
|
|
500000000000000000000000000008000000000000000000,
|
|
100000000000200000100000100100100000200200200000,
|
|
100000000000200000100000100000000000000000000000,
|
|
100000000000200000100000100100100100200000200200,
|
|
100000000000200000100000100100100100200000200200,
|
|
100000000000200000100000100100100000100100100000,
|
|
100000100100200000200000100000100100200000200000,
|
|
100000000000200000100000200100100000200100100000,
|
|
500000000000000000000000000008000000000000000000,
|
|
100000000000200000100000100100100100200000100000,
|
|
300000000000300000000000200200200200100100100100,
|
|
|
|
#GOGOSTART
|
|
100000100000200000100000100100100100200000100000,
|
|
100000100000200000100000100100100100200000200200,
|
|
100000100100200000100000100000100100200000100000,
|
|
100100200000100100200000200000200200100100100100,
|
|
100000100000200000100000100100100100200000200200,
|
|
100000100000200000100000100100100100200000200200,
|
|
100000100100200000200200100000100100200000200200,
|
|
100000100100100100100000200000000000100100100000,
|
|
500000000000000000000000000000000000000000000000,
|
|
000000000000000008000000000000000000000000000000,
|
|
|
|
#GOGOEND
|
|
|
|
|
|
#END
|
|
|
|
|
|
COURSE:Hard
|
|
LEVEL:4
|
|
BALLOON:10
|
|
SCOREINIT:1470
|
|
SCOREDIFF:460
|
|
|
|
|
|
#START
|
|
|
|
|
|
100000000000200000000000100000100000200000000000,
|
|
100000000000200000000000100000100000200000000000,
|
|
100000000000200000100000100000000000200000100000,
|
|
100000000000200000000000100000100000200000000000,
|
|
100000000000200000000000100000100000200000000000,
|
|
500000000000000000000000000000000800000000000000,
|
|
100000000000200000000000100000100000200000000000,
|
|
100000000000200000000000200000000000000000000000,
|
|
100000000000200000100000100100100000200000000000,
|
|
100000000000200000100000100100100000200000000000,
|
|
100000000000200000100000100000000000200000100000,
|
|
100000100000200000000000100000100000200000000000,
|
|
100000000000200000100000100100100000200000100000,
|
|
500000000000000000000000000000000800000000000000,
|
|
100000000000200000100000200000000000200000100000,
|
|
300000000000300000000000000000000000000000000000,
|
|
#GOGOSTART
|
|
100000100000200000000000100000100000200000100000,
|
|
100000100000200000000000100000100000200000100100,
|
|
100000100000200000000000100100100000200000000000,
|
|
100000100000200000200000200000200200200000000000,
|
|
100000100000200000000000100000100000200000100000,
|
|
100000100000200000000000100000100000200000100100,
|
|
100000100000200000000000100100100000200000200000,
|
|
100000100100100000100000200000200200200000200000,
|
|
9,
|
|
00080000,
|
|
|
|
|
|
#END
|
|
|
|
|
|
COURSE:Normal
|
|
LEVEL:3
|
|
BALLOON:8
|
|
SCOREINIT:1810
|
|
SCOREDIFF:890
|
|
|
|
|
|
#START
|
|
|
|
|
|
100000000000200000000000100000000000100000000000,
|
|
100000000000200000000000100000000000100000000000,
|
|
100000000000200000000000100000000000200000000000,
|
|
100000000000000000000000000000000000000000000000,
|
|
100000000000100000000000100000000000100000000000,
|
|
500000000000000000000000800000000000000000000000,
|
|
100000000000200000000000100000000000200000000000,
|
|
100000000000100000100000100000000000000000000000,
|
|
100000000000200000000000100000100000100000000000,
|
|
100000000000200000000000100000100000100000000000,
|
|
100000000000200000000000100000000000200000000000,
|
|
100000000000000000000000000000000000000000000000,
|
|
100000000000100000000000100000000000100000000000,
|
|
500000000000000000000000800000000000000000000000,
|
|
100000000000200000000000100000000000200000000000,
|
|
300000000000300000000000000000000000000000000000,
|
|
#GOGOSTART
|
|
100000100000100000000000100000000000000000000000,
|
|
200000200000200000000000200000000000000000000000,
|
|
100000000000100000000000100000000000100000000000,
|
|
200000000000200000200000200000000000200000000000,
|
|
100000100000100000000000100000000000000000000000,
|
|
200000200000200000000000200000000000000000000000,
|
|
100000000000100000000000100000000000100000000000,
|
|
100000000000000000000000200000000000200000000000,
|
|
900000000000000000000000000000000000000000000008,
|
|
|
|
|
|
#END
|
|
|
|
|
|
COURSE:Easy
|
|
LEVEL:2
|
|
BALLOON:6
|
|
SCOREINIT:1690
|
|
SCOREDIFF:1180
|
|
|
|
|
|
#START
|
|
|
|
|
|
100000000000000000000000100000000000000000000000,
|
|
100000000000000000000000100000000000000000000000,
|
|
100000000000100000000000100000000000100000000000,
|
|
100000000000000000000000000000000000000000000000,
|
|
100000000000100000000000100000000000100000000000,
|
|
500000000000000000000000800000000000000000000000,
|
|
100000000000000000000000100000000000100000000000,
|
|
100000000000000000000000000000000000000000000000,
|
|
100000000000000000000000200000000000000000000000,
|
|
100000000000000000000000200000000000000000000000,
|
|
100000000000100000000000100000000000100000000000,
|
|
100000000000000000000000000000000000000000000000,
|
|
100000000000100000000000100000000000100000000000,
|
|
500000000000000000000000800000000000000000000000,
|
|
100000000000000000000000100000000000000000000000,
|
|
300000000000000000000000000000000000000000000000,
|
|
#GOGOSTART
|
|
100000000000100000000000100000000000000000000000,
|
|
200000000000200000000000200000000000000000000000,
|
|
100000000000100000000000100000000000100000000000,
|
|
100000000000000000000000200000000000000000000000,
|
|
100000000000100000000000100000000000000000000000,
|
|
200000000000200000000000200000000000000000000000,
|
|
100000000000100000000000100000000000100000000000,
|
|
100000000000000000000000100000000000000000000000,
|
|
900000000000000000000000000000000000000000000008,
|
|
|
|
|
|
#END
|
|
|