223 lines
7.4 KiB
Plaintext
223 lines
7.4 KiB
Plaintext
//TJADB Project
|
|
TITLE:Akaneiro no Yakusoku
|
|
TITLEJA:茜色の約束
|
|
SUBTITLE:--Ikimono-gakari/LISMO!
|
|
BPM:79
|
|
WAVE:Akaneiro no Yakusoku.ogg
|
|
OFFSET:-3.259
|
|
DEMOSTART:82.246
|
|
|
|
COURSE:Oni
|
|
LEVEL:6
|
|
BALLOON:18
|
|
SCOREINIT:890
|
|
SCOREDIFF:230
|
|
|
|
|
|
#START
|
|
|
|
|
|
100000100000200000000000100000100000200000000000,
|
|
100000000000100000000000100000100000200000000000,
|
|
100000100000200000000000100000100000200000000000,
|
|
100100100100100100100100500000000000000008000000,
|
|
100000100000200000000100100000100000200000000100,
|
|
100000000000100000100100200000000000200000100100,
|
|
100000000000100000100100200000000000100100200000,
|
|
100000100100100000100100100000200200100200200100,
|
|
100000100000200000000100100000100000200000000100,
|
|
100000100000200000000000100000100000200000100100,
|
|
100000100000200000000100100000100000200000100100,
|
|
100000100100100000100100100000200200100200200100,
|
|
100000100000200000000100100000100000200000000100,
|
|
100000200200100000200200100000100000200000100100,
|
|
100000100000200000000100100000100000200000100100,
|
|
100000100100100000100100100000200200100200200100,
|
|
100000100000200000000100100000100000200000000100,
|
|
100000200000100000200000100000100000200000100100,
|
|
100000100000200000000100100000100000200000000100,
|
|
100000200000100000200000100000100000100000200200,
|
|
100000100000200000000100100000100000200000000100,
|
|
100000100100100000100100100000100100100200100200,
|
|
100000100100100100100100100000200200200200200200,
|
|
200000100100100000100100100000200200100200200100,
|
|
700000000000000000000000000000000000000000800000,
|
|
300000000400000000300000000000100000100100200000,
|
|
|
|
#GOGOSTART
|
|
100000100000200000100100100000100000200000100100,
|
|
100000200200100000200200100000200200200000200200,
|
|
100000100000200000100100100000100000200000100100,
|
|
100000200200100000200200100000200200200000100100,
|
|
100000100100200000200200100000100100100200100200,
|
|
100000100100100100100100100000200200200000200000,
|
|
500000000000000008000000100000100000100100200000,
|
|
500000000000000008000000100000100000100100200000,
|
|
|
|
#GOGOEND
|
|
3,
|
|
|
|
|
|
#END
|
|
|
|
|
|
COURSE:Hard
|
|
LEVEL:3
|
|
BALLOON:15
|
|
SCOREINIT:1110
|
|
SCOREDIFF:300
|
|
|
|
|
|
#START
|
|
|
|
|
|
100000000000200000000000100000100000200000000000,
|
|
100000000000100000000000100000100000200000000000,
|
|
100000000000200000000000100000100000200000000000,
|
|
500000000000000000000000000000000800000000000000,
|
|
100000100000200000000000100000100000200000000000,
|
|
100000000000100000100000200000000000200000000000,
|
|
100000000000000000100000200000000000200000000000,
|
|
100000100000100000100000200000000000200200200000,
|
|
300000000000000000100000100000000000200000000000,
|
|
100000000000000000100000100000000000000000000000,
|
|
100000000000000000100000100000000000200000000000,
|
|
100000000000100000100000100000000000200000000000,
|
|
100000000000000000100000200000000000100000000000,
|
|
100000000000000000100000200000000000100000000000,
|
|
100000000000000000100000200000000000100000000000,
|
|
100000000000100000100000100000000000200000000000,
|
|
100000000000200000100000100000000000200000100000,
|
|
100000000000100000100000100000000000100000100000,
|
|
100000000000200000100000100000000000200000100000,
|
|
100000000000100000000000100000000000200000100000,
|
|
100000000000200000100000100000000000200000100000,
|
|
100000000000100000000000100000000000200000100000,
|
|
100000100100000000000100100000200200000000000100,
|
|
100000000000100000000000100000100000100000100000,
|
|
700000000000000000000000000000000800000000000000,
|
|
300000000400000000300000000000000000000000000000,
|
|
#GOGOSTART
|
|
100000100000200000000100100000100000200000000100,
|
|
100000100000200000100000100000100000200000000100,
|
|
100000100000200000000100100000100000200000000100,
|
|
100000100000200000000100100000100000200000000000,
|
|
300000000000300000000000300000000000300000000000,
|
|
300000000000300000300000400000000000000000000000,
|
|
500000000000000000000000000000000800000000000000,
|
|
300000000000100000100000200000000000200000000000,
|
|
#GOGOEND
|
|
300000000000000000000000000000000000000000000000,
|
|
|
|
|
|
#END
|
|
|
|
|
|
COURSE:Normal
|
|
LEVEL:3
|
|
BALLOON:12
|
|
SCOREINIT:1360
|
|
SCOREDIFF:500
|
|
|
|
|
|
#START
|
|
|
|
|
|
100000000000000000000000200000000000000000000000,
|
|
100000000000100000000000100000000000000000000000,
|
|
100000000000000000000000200000000000000000000000,
|
|
500000000000000000000000000000800000000000000000,
|
|
100000000000200000000000100000000000200000000000,
|
|
100000000000100000000000100000000000000000000000,
|
|
100000000000200000000000100000000000200000000000,
|
|
500000000000000000000000000000800000000000000000,
|
|
100000000000100000000000100000000000000000000000,
|
|
100000000000100000000000100000000000000000000000,
|
|
100000000000000000100000100000000000100000000000,
|
|
100000000000100000000000100000000000000000000000,
|
|
100000000000100000000000200000000000000000000000,
|
|
100000000000100000000000200000000000000000000000,
|
|
100000000000000000100000100000000000100000000000,
|
|
300000000000300000000000300000000000000000000000,
|
|
100000000000200000000000100000000000200000000000,
|
|
100000000000000000000000100000000000100000000000,
|
|
100000000000200000000000100000000000200000000000,
|
|
100000000000000000000000100000000000100000000000,
|
|
100000000000200000000000100000000000200000000000,
|
|
100000000000000000000000100000000000100000000000,
|
|
100000000000000000000000100000000000000000000000,
|
|
100000000000100000000000100000000000100000000000,
|
|
9,
|
|
8,
|
|
|
|
#GOGOSTART
|
|
100000000000200000000000100000100000200000000000,
|
|
100000000000100000000000100000000000000000000000,
|
|
100000000000200000000000100000100000200000000000,
|
|
100000000000100000000000100000000000000000000000,
|
|
300000000000300000000000300000000000300000000000,
|
|
300000000000300000000000400000000000000000000000,
|
|
500000000000000000000000000000800000000000000000,
|
|
300000000000300000000000400000000000000000000000,
|
|
|
|
#GOGOEND
|
|
300000000000000000000000000000000000000000000000,
|
|
|
|
|
|
#END
|
|
|
|
|
|
COURSE:Easy
|
|
LEVEL:2
|
|
BALLOON:10
|
|
SCOREINIT:1130
|
|
SCOREDIFF:540
|
|
|
|
|
|
#START
|
|
|
|
|
|
100000000000000000000000000000000000000000000000,
|
|
100000000000000000000000000000000000000000000000,
|
|
100000000000000000000000000000000000000000000000,
|
|
100000000000000000000000000000000000000000000000,
|
|
100000000000000000000000100000000000000000000000,
|
|
100000000000100000000000100000000000000000000000,
|
|
100000000000000000000000100000000000000000000000,
|
|
500000000000000000000000000000800000000000000000,
|
|
300000000000000000000000100000000000000000000000,
|
|
100000000000100000000000100000000000000000000000,
|
|
100000000000000000000000100000000000000000000000,
|
|
100000000000100000000000100000000000000000000000,
|
|
100000000000000000000000100000000000000000000000,
|
|
100000000000100000000000100000000000000000000000,
|
|
100000000000000000000000100000000000000000000000,
|
|
100000000000100000000000100000000000000000000000,
|
|
100000000000000000000000100000000000200000000000,
|
|
100000000000000000000000100000000000000000000000,
|
|
100000000000000000000000100000000000200000000000,
|
|
100000000000000000000000100000000000000000000000,
|
|
100000000000000000000000200000000000200000000000,
|
|
100000000000000000000000100000000000000000000000,
|
|
100000000000000000000000200000000000200000000000,
|
|
100000000000000000000000100000000000100000000000,
|
|
9,
|
|
8,
|
|
|
|
#GOGOSTART
|
|
100000000000100000000000100000000000100000000000,
|
|
100000000000000000000000300000000000000000000000,
|
|
100000000000100000000000100000000000100000000000,
|
|
100000000000000000000000300000000000000000000000,
|
|
300000000000300000000000300000000000300000000000,
|
|
300000000000300000000000300000000000000000000000,
|
|
500000000000000000000000000000800000000000000000,
|
|
300000000000000000000000100000000000100000000000,
|
|
|
|
#GOGOEND
|
|
100000000000000000000000000000000000000000000000,
|
|
|
|
|
|
#END
|
|
|