Files
ESE/01 Pop/American Girls/American Girls.tja
T
2023-06-15 19:15:39 -05:00

488 lines
10 KiB
Plaintext

//TJADB Project
TITLE:American Girls
TITLEJA:American Girls
SUBTITLE:--Counting Crows
BPM:105.2
WAVE:American Girls.ogg
OFFSET:-3.456
DEMOSTART:20.423
COURSE:Oni
LEVEL:7
#START
100000000100200000100100000100000100200200100000,
100000000100200000100100000100000100100100100000,
100000000100200000100100000100000100200200100100,
100000000000200000100000100000100000200000000000,
100000000000200000100000100200100000200000100100,
100000000100200000100100000100000100200200100000,
100000000100200000100100000100000100100100100100,
100000000000000000000000100000100100000100100100,
100000000000200000100000200100100000100000100000,
100000000000200000100000200100100000200000200000,
100000000000200000100000200100100000100000100100,
100000000000000000100000100000100000200000200000,
100000100000200000100000000000100000200000100000,
100000000100200000100100000100000100200200100000,
100000000100200000100100000100000100100100100000,
100000000000000000000000000000000000000000000000,
100000000000200000100000200100100000100000100000,
100000000000200000100000200100100000200000200000,
100000000000200000100000100100000100000100100000,
100000000000000000100000100000100000200000200000,
100000100000200000100000000000100000200000100000,
100000000000000000100000100000100000200000200000,
100000100000200000100000000000100000200000100000,
100000000000000000000000100000100000200000000000,
100000100000200000100000100000200000100000100000,
200000100000100000200000100000100000200000100000,
100000000000000000100000100000100000200000100000,
100000100000200000000000100000100000200000000000,
100100000100200000200100100200000100200000100100,
100100000100200000200100100200000100200000100100,
100000000000000000000000100000100000200000100000,
000000100000000000000000100000100000200000000000,
100100000100200000200100100200000100200000100100,
100100000100200000200100100200000100200000100100,
100000100000200000000200200000100000100200100000,
300000000000000000000000000000000000000000000000,
#END
COURSE:Hard
LEVEL:2
STYLE:Double
SCOREINIT:1010
#START P1
10210120,
10210120,
10210120,
10211121,
1000201110101000,
1011201101101000,
1011201101011000,
1,
1000200101101010,
,
1000200101101011,
00011122,
11210121,
1011201101101000,
1011201101011000,
3,
1000200101101010,
,
1000200011010110,
00011122,
11210121,
10201120,
10201120,
10201120,
11211211,
,
10011121,
01201120,
10002111,
01011111,
11201020,
,
00200200,
1,
1010200220101210,
3,
#END
#START P2
1011201101101000,
1011201101101000,
1011201101101000,
10001111,
1000201012102000,
10210120,
10210120,
3000000010110111,
,
1000200101101010,
,
10201120,
10201120,
10210120,
10210120,
3,
,
1000200101101010,
,
10201120,
10201120,
00011122,
11210121,
10011120,
,
21121121,
11201020,
,
0202,
10010010,
10001121,
01001120,
10002111,
01011120,
1010200220101210,
3,
#END
STYLE:Single
SCOREINIT:810
SCOREDIFF:210
#START
100000000000200000000100000000100000200000100000,
100000000000200000000100000000100000200000100000,
100000000000200000000100000000100000200000100100,
100000000000200000100000100000100000200000000000,
100000000000200000100000100000100000200000000000,
100000000000200000000100000000100000200000100000,
100000000000200000000100000000100000200000100100,
100000000000000000000000100000100100000100100100,
100000000000200000100000100100100000100000100000,
100000000000200000100000100100100000100000100000,
100000000000200000100000100100100000100000100100,
100000000000000000100000100000100000200000200000,
100000100000200000100000000000100000200000100000,
100000000000200000000100000000100000200000100000,
100000000000200000000100000000100000200000100100,
100000000000000000000000000000000000000000000000,
100000000000200000100000100100100000100000100000,
100000000000200000100000100100100000100000100000,
100000000000200000100000100100000100000100100000,
100000000000000000100000100000100000200000200000,
100000100000200000100000000000100000200000100000,
100000000000000000100000100000100000200000200000,
100000100000200000100000000000100000200000100000,
100000000000000000000000100000100000200000000000,
100000100000200000100000100000200000100000100000,
200000100000100000200000100000100000200000100000,
100000000000000000100000100000100000200000100000,
100000100000200000000000100000100000200000000000,
100000000000200000000000100000100000200000000000,
100000100000200000000000100000100000200000000000,
100000000000000000000000100000100000200000100000,
000000100000000000000000100000100000200000000000,
100000000000200000000000100000100000200000000000,
100000000000200000100000100000100000200000000000,
100000100000200000000200200000100000100200100000,
300000000000000000000000000000000000000000000000,
#END
COURSE:Normal
LEVEL:1
STYLE:Double
SCOREINIT:1630
#START P1
1200,
00001120,
1200,
1200,
1212,
1200,
00001120,
3,
1000100100101000,
,
1000100100101000,
1200,
00001120,
1210,
00001110,
3,
1000100100101000,
,
1000100100101000,
00001120,
1200,
00001120,
1200,
00001120,
00110011,
00220022,
10011110,
10001110,
10101101,
1100,
1212,
1200,
1222,
10011110,
500000000000000000000000000000000008000000000000,
3,
#END
#START P2
00001120,
1200,
11001120,
10001111,
01010100,
10001120,
1200,
3,
,
1000100100101000,
,
00001120,
1200,
00001110,
1200,
3,
,
1000100100101000,
,
1200,
00001120,
1200,
00001120,
1200,
11001100,
22002200,
,
1200,
0222,
10201110,
00001111,
01001010,
10001110,
10011110,
500000000000000000000000000000000008000000000000,
3,
#END
STYLE:Single
SCOREINIT:1210
SCOREDIFF:390
#START
100000000000200000000000100000100000000000000000,
100000000000100000000000100000100000000000000000,
100000000000200000000000100000100000000000000000,
100000000000100000000000100000100000000000000000,
100000000000200000000000100000000000200000000000,
100000000000200000000000100000100000000000000000,
100000000000100000000000100000100000000000000000,
300000000000000000000000000000000000000000000000,
100000000000100000000000100000100000000000000000,
100000000000200000000000100000100000000000000000,
100000000000100000000000100000100000100000000000,
100000000000200000000000100000000000000000000000,
100000000000100000000000100000100000000000000000,
100000000000200000000000100000100000000000000000,
100000000000100000000000100000100000000000000000,
100000000000000000000000000000000000000000000000,
100000000000100000000000100000100000000000000000,
100000000000100000000000100000100000000000000000,
100000000000100000000000100100000100000100100000,
100000000000200000000000100000000000000000000000,
100000000000100000000000100000100000000000000000,
100000000000200000000000100000000000000000000000,
100000000000100000000000100000100000000000000000,
100000000000200000000000100000000000000000000000,
100000000000100000000000100000000000100000000000,
200000000000200000000000200000000000200000000000,
100000000000000000100000100000100000100000100000,
000000100000000000000000100000100000200000000000,
100000000000100000000000100000100000100000100000,
000000100000000000100000100000100000100000100000,
000000000000000000000000100000100000100000100000,
000000100000100000000000100000100000200000000000,
100000000000000000000000100000100000100000100000,
000000100000000000100000100000100000100000000000,
500000000000000000000000000000800000000000000000,
300000000000000000000000000000000000000000000000,
#END
COURSE:Easy
LEVEL:1
STYLE:Double
SCOREINIT:1950
#START P1
1,
10001100,
0100,
1200,
,
0100,
0100,
3,
1100,
00001100,
11,
1200,
1100,
1,
0100,
3,
1100,
00001100,
1,
1200,
1100,
1200,
1100,
1200,
1111,
000000000000000000000000500000000000000000000008,
0011,
1,
1100,
1100,
,
00001110,
10001110,
00001110,
500000000000000000000000000008000000000000000000,
3,
#END
#START P2
0100,
0100,
1,
,
1200,
1,
10001100,
3,
00001100,
1100,
11,
0012,
0011,
0100,
10001100,
3,
00001100,
1100,
1,
0012,
0011,
0012,
0011,
0012,
0011,
1111,
1,
00001110,
10001110,
,
0011,
1,
1100,
1,
500000000000000000000000000008000000000000000000,
3,
#END
STYLE:Single
SCOREINIT:1500
SCOREDIFF:850
#START
100000000000000000000000000000000000000000000000,
100000000000100000000000000000000000000000000000,
100000000000000000000000000000000000000000000000,
100000000000200000000000000000000000000000000000,
100000000000200000000000100000000000000000000000,
100000000000000000000000000000000000000000000000,
100000000000100000000000000000000000000000000000,
100000000000000000000000100000000000100000000000,
100000000000100000000000000000000000000000000000,
100000000000100000000000000000000000000000000000,
100000000000100000000000100000000000000000000000,
100000000000200000000000000000000000000000000000,
100000000000100000000000100000000000000000000000,
100000000000000000000000000000000000000000000000,
100000000000100000000000000000000000000000000000,
100000000000000000000000100000000000100000000000,
100000000000100000000000000000000000000000000000,
100000000000100000000000000000000000000000000000,
100000000000000000000000000000000000000000000000,
100000000000200000000000000000000000000000000000,
100000000000100000000000100000000000000000000000,
100000000000200000000000000000000000000000000000,
100000000000100000000000100000000000000000000000,
100000000000200000000000000000000000000000000000,
100000000000100000000000100000000000100000000000,
100000000000100000000000500000000000000000800000,
000000000000000000000000100000000000100000000000,
100000000000100000000000000000000000000000000000,
100000000000100000000000000000000000000000000000,
100000000000100000000000000000000000000000000000,
000000000000000000000000100000000000100000000000,
100000000000100000000000100000000000100000000000,
100000000000000000000000100000000000100000000000,
100000000000000000000000100000100000100000000000,
500000000000000000000000800000000000000000000000,
300000000000000000000000000000000000000000000000,
#END