217 lines
3.1 KiB
Plaintext
217 lines
3.1 KiB
Plaintext
//TJADB Project
|
|
TITLE:Arigatou
|
|
TITLEJA:ありがとう
|
|
SUBTITLE:--Ikimono-gakari/GeGeGe no Nyoubou
|
|
BPM:78.78
|
|
WAVE:Arigatou.ogg
|
|
OFFSET:-3.272
|
|
DEMOSTART:37.445
|
|
|
|
COURSE:Oni
|
|
LEVEL:4
|
|
SCOREINIT:1090
|
|
SCOREDIFF:353
|
|
|
|
|
|
#START
|
|
|
|
|
|
#MEASURE 4/4
|
|
1000002110210010,
|
|
#BPMCHANGE 79.22
|
|
500000000000000000000000000000000008000000000000,
|
|
#MEASURE 2/4
|
|
#BPMCHANGE 79
|
|
2222,
|
|
#MEASURE 4/4
|
|
1000201110102010,
|
|
1000200110102000,
|
|
1000200110102010,
|
|
1000200010112010,
|
|
1011200010112010,
|
|
1011200010002000,
|
|
1010201110102010,
|
|
1010202000102220,
|
|
1010112012012111,
|
|
|
|
#GOGOSTART
|
|
1010201110102011,
|
|
1010201110112011,
|
|
1010201110112011,
|
|
1011201000112011,
|
|
1010200010102110,
|
|
100000100500000000000000000000008000000000100100,
|
|
2011201120112110,
|
|
1010201000101111,
|
|
1010201110102011,
|
|
1010201110112011,
|
|
1010201110112011,
|
|
1011201000112011,
|
|
1010200010102110,
|
|
100000100500000000000000000000008000000000100100,
|
|
0001201010102010,
|
|
1110201120120150,
|
|
000000000000000000000000000000000000000008000000,
|
|
|
|
#GOGOEND
|
|
|
|
|
|
#END
|
|
|
|
|
|
COURSE:Hard
|
|
LEVEL:2
|
|
SCOREINIT:1390
|
|
SCOREDIFF:675
|
|
|
|
|
|
#START
|
|
|
|
|
|
#MEASURE 4/4
|
|
1000000020000000,
|
|
#BPMCHANGE 79.22
|
|
5008,
|
|
#MEASURE 2/4
|
|
#BPMCHANGE 79
|
|
0000,
|
|
#MEASURE 4/4
|
|
2010200010102000,
|
|
2010200010102000,
|
|
2010200010102000,
|
|
1000000000000000,
|
|
1000200010102000,
|
|
1000200010102000,
|
|
1000200010102000,
|
|
1000102000000000,
|
|
3030111000000000,
|
|
|
|
#GOGOSTART
|
|
1000200110102000,
|
|
1010200110102000,
|
|
1000200110102010,
|
|
5000000000800000,
|
|
1000200020102000,
|
|
1010201000102000,
|
|
1010200010102000,
|
|
1000000000000000,
|
|
1000200110102000,
|
|
1010200110102000,
|
|
1000200110102000,
|
|
5000000000800000,
|
|
1010200010102000,
|
|
1010201000102000,
|
|
1000200010102000,
|
|
1010200110110050,
|
|
00000008,
|
|
|
|
#GOGOEND
|
|
|
|
|
|
#END
|
|
|
|
|
|
COURSE:Normal
|
|
LEVEL:3
|
|
SCOREINIT:2020
|
|
SCOREDIFF:1733
|
|
|
|
|
|
#START
|
|
|
|
|
|
#MEASURE 4/4
|
|
1000000010001000,
|
|
#BPMCHANGE 79.22
|
|
5008,
|
|
#MEASURE 2/4
|
|
#BPMCHANGE 79
|
|
0000,
|
|
#MEASURE 4/4
|
|
1000000010002000,
|
|
1000000010101000,
|
|
1000100010001000,
|
|
1000000000000000,
|
|
1000000010002000,
|
|
1000000010101000,
|
|
1000100020002000,
|
|
1000000000000000,
|
|
3000000000001010,
|
|
|
|
#GOGOSTART
|
|
|
|
1000200010101000,
|
|
5000000000008000,
|
|
1000200010001000,
|
|
5000000000080000,
|
|
1000200010002000,
|
|
1000200000000000,
|
|
3000200030002000,
|
|
1000000000000000,
|
|
1000200010101000,
|
|
5000000000008000,
|
|
1000200010002000,
|
|
5000000000008000,
|
|
1000200010002000,
|
|
1000500000000800,
|
|
1000000010000000,
|
|
1000000010001000,
|
|
30000000,
|
|
|
|
#GOGOEND
|
|
|
|
#END
|
|
|
|
COURSE:Easy
|
|
LEVEL:3
|
|
SCOREINIT:1750
|
|
SCOREDIFF:1935
|
|
|
|
|
|
#START
|
|
|
|
|
|
#MEASURE 4/4
|
|
1000000010001000,
|
|
#BPMCHANGE 79.22
|
|
5008,
|
|
#MEASURE 2/4
|
|
#BPMCHANGE 79
|
|
0000,
|
|
#MEASURE 4/4
|
|
1000000020000000,
|
|
1000100010000000,
|
|
1000000020000000,
|
|
1000000000000000,
|
|
1000000020000000,
|
|
1000100010000000,
|
|
1000000010001000,
|
|
|
|
1000000000000000,
|
|
3000300000000000,
|
|
|
|
#GOGOSTART
|
|
1000000010001000,
|
|
5000000080000000,
|
|
1000000010001000,
|
|
5000000080000000,
|
|
1000100000001000,
|
|
1000100000000000,
|
|
1000100010001000,
|
|
1000000000000000,
|
|
1000000010001000,
|
|
5000000080000000,
|
|
1000000010001000,
|
|
5000000080000000,
|
|
1000100000001000,
|
|
1000100000000000,
|
|
1000000010000000,
|
|
1000000030003000,
|
|
6000000080,
|
|
|
|
#GOGOEND
|
|
|
|
|
|
#END
|
|
|