279 lines
10 KiB
Plaintext
279 lines
10 KiB
Plaintext
//TJADB Project
|
||
TITLE:Aruite Ikou
|
||
TITLEJA:歩いていこう
|
||
SUBTITLE:--Ikimono-gakari/Runaway ~Ai Suru Kimi no Tameni~
|
||
SUBTITLEJA:ドラマ「ランナウェイ 〜愛する君のために」より
|
||
BPM:82
|
||
WAVE:Aruite Ikou.ogg
|
||
OFFSET:-3.331
|
||
DEMOSTART:98.259
|
||
|
||
COURSE:Oni
|
||
LEVEL:3
|
||
BALLOON:16,9
|
||
SCOREINIT:830
|
||
SCOREDIFF:230
|
||
|
||
|
||
#START
|
||
|
||
|
||
100000000000200000000000100000100000200000000000,
|
||
100000000000200000000000000000000000200000000000,
|
||
100000000000200000000000100000100000200000000000,
|
||
100000000000200000000000000000000000200000000000,
|
||
100000000000200000000000100000100000200000000000,
|
||
100000000000100000000000100000000000200000000000,
|
||
500000000000000000000000000000000000000008000000,
|
||
100000100000100000000000000000000000000000000000,
|
||
300000000000300000300000000000100000100100100000,
|
||
300000000000000000000000000000000000200200200000,
|
||
100000000000200000000000100000100000200000100000,
|
||
100000000000200000100000100000000000200000000000,
|
||
100000000000200000000000100000100000200000100000,
|
||
500000000000000000000000000000000008000000000000,
|
||
100000000000200000000000100000100000200000100000,
|
||
100000000000200000100000100000000000200000000000,
|
||
100000000000200000000000100000100000200000100000,
|
||
100000000000200000000000100000200000200000100000,
|
||
100000000000200000000000100000100000200000100000,
|
||
100000000000200000100000100000000000200000000000,
|
||
100000000000200000000000100000100000200000100000,
|
||
500000000000000000000000000000000008000000000000,
|
||
100000000000200000000000100000100000200000100000,
|
||
100000000000200000100000100000000000200000000000,
|
||
100000000000200000000000100000100000200000100000,
|
||
100000000000200000000000200200200000200000100100,
|
||
100000100000200000300000000200200000200000100100,
|
||
100000200000300000300000000000000000000000000000,
|
||
100000100000200000200000100200100000200000100100,
|
||
100000100000200000200000100200100000200000100100,
|
||
100000100000200000200200100200100000200000700000,
|
||
100600000000000000000000800000000000200200200000,
|
||
300000300000300000000000000000200200000200200000,
|
||
|
||
#GOGOSTART
|
||
100000100000200000200200100000100000200000200000,
|
||
100000100000200000200200100000100000200000000000,
|
||
100000100000200000200200100000200000200000200200,
|
||
100000100000200000200200100000100000200000000000,
|
||
100000100000200000200200100000100000200000100000,
|
||
300000000000300000000000300000000000400000000000,
|
||
600000000000000000000000000008000000000000700000,
|
||
000000000000800000000000200200200000100100100000,
|
||
100000100000200000200200100000100000200000200000,
|
||
100000100000200000200200100000100000200000000000,
|
||
100000100000200000200200100000200000200000200200,
|
||
100000100000200000200200100000100000200000000000,
|
||
100000100000200000200200100000100000200000100000,
|
||
300000000000300000000000300000000000400000000000,
|
||
600000000000000000000000000000000008000000000000,
|
||
300000000000300000000000000000000000000000000000,
|
||
600000000000000000000000000000000000000000000000,
|
||
000008000000000000000000000000000000000000000000,
|
||
|
||
|
||
#END
|
||
|
||
|
||
COURSE:Hard
|
||
LEVEL:1
|
||
BALLOON:24,8
|
||
SCOREINIT:750
|
||
SCOREDIFF:213
|
||
|
||
|
||
#START
|
||
|
||
|
||
100000000000200000000000000000000000200000000000,
|
||
100000000000200000000000000000000000200000000000,
|
||
100000000000200000000000000000000000200000000000,
|
||
100000000000200000000000000000000000200000000000,
|
||
100000000000200000000000100000100000200000000000,
|
||
100000000000100000000000100000000000200000000000,
|
||
500000000000000000000000000000000000800000000000,
|
||
100000100000100000000000000000000000000000000000,
|
||
300000000000300000300000000000300000400000000000,
|
||
300000000000000000000000000000000000000000000000,
|
||
100000000000200000000000100000100000200000000000,
|
||
100000000000200000100000100000000000200000000000,
|
||
100000000000200000000000100000100000200000100000,
|
||
500000000000000000000000000000800000000000000000,
|
||
100000000000200000000000100000100000200000000000,
|
||
100000000000200000100000100000000000200000000000,
|
||
100000000000200000000000100000100000200000000000,
|
||
100000000000200000000000100000200000200000100000,
|
||
100000000000200000000000100000100000200000000000,
|
||
100000000000200000100000100000000000200000000000,
|
||
100000000000200000000000100000100000200000100000,
|
||
500000000000000000000000000000800000000000000000,
|
||
100000000000200000000000100000100000200000000000,
|
||
100000000000200000100000100000000000200000000000,
|
||
100000000000200000000000100000100000200000000000,
|
||
100000000000200000000000200000200000200000100000,
|
||
100000100000000000300000000000000000200000100000,
|
||
100000000000300000300000000000000000000000000000,
|
||
100000100000200000000000100000200000200000000000,
|
||
100000100000200000000000100000200000200000000000,
|
||
100000100000100000100000200000200000200000900000,
|
||
,
|
||
8,
|
||
#GOGOSTART
|
||
100000100000200000000000100000100000200000200000,
|
||
100000100000200000000000100000200000200000000000,
|
||
100000100000200000000000100000100000200000200000,
|
||
100000100000200000000000100000200000200000000000,
|
||
100000100000200000100000100000200000200000000000,
|
||
300000000000300000000000300000000000400000000000,
|
||
600000000000000000000000000000800000000000700000,
|
||
000000000000000000000000000000800000000000000000,
|
||
100000100000200000000000100000100000200000200000,
|
||
100000100000200000000000100000200000200000000000,
|
||
100000100000200000000000100000100000200000200000,
|
||
100000100000200000000000100000200000200000000000,
|
||
100000100000200000100000100000200000200000000000,
|
||
300000000000300000000000300000000000400000000000,
|
||
600000000000000000000000000000800000000000000000,
|
||
300000000000300000000000000000000000000000000000,
|
||
600000000000000000000000000000000000000000000008,
|
||
|
||
|
||
|
||
#END
|
||
|
||
|
||
COURSE:Normal
|
||
LEVEL:2
|
||
BALLOON:19
|
||
SCOREINIT:920
|
||
SCOREDIFF:345
|
||
|
||
|
||
#START
|
||
|
||
|
||
100000000000200000000000000000000000200000000000,
|
||
100000000000200000000000000000000000200000000000,
|
||
100000000000200000000000000000000000200000000000,
|
||
100000000000200000000000000000000000200000000000,
|
||
100000000000200000000000000000000000200000000000,
|
||
100000000000100000000000100000000000200000000000,
|
||
500000000000000000000000000000000000800000000000,
|
||
000000000000000000000000000000000000000000000000,
|
||
300000000000300000300000000000000000000000000000,
|
||
300000000000000000000000000000000000000000000000,
|
||
100000000000000000000000100000000000000000000000,
|
||
200000000000000000000000200000000000000000000000,
|
||
100000000000000000000000100000000000100000000000,
|
||
500000000000000000000000800000000000000000000000,
|
||
100000000000000000000000100000000000000000000000,
|
||
200000000000000000000000200000000000000000000000,
|
||
100000000000000000000000100000000000100000000000,
|
||
100000000000000000000000200000000000200000000000,
|
||
100000000000000000000000100000000000000000000000,
|
||
200000000000000000000000200000000000000000000000,
|
||
100000000000000000000000100000000000100000000000,
|
||
500000000000000000000000800000000000000000000000,
|
||
100000000000000000000000100000000000000000000000,
|
||
200000000000000000000000200000000000000000000000,
|
||
100000000000000000000000100000000000100000000000,
|
||
100000000000000000000000200000000000200000000000,
|
||
100000100000000000300000000000000000000000000000,
|
||
100000000000300000300000000000000000000000000000,
|
||
100000000000100000000000100000100000100000000000,
|
||
100000000000100000000000100000100000100000000000,
|
||
100000000000100000000000200000200000200000900000,
|
||
,
|
||
8,
|
||
#GOGOSTART
|
||
100000000000100000000000100000100000100000000000,
|
||
100000000000100000000000100000100000100000000000,
|
||
100000000000100000000000200000200000200000000000,
|
||
100000000000100000000000100000000000000000000000,
|
||
100000000000100000000000200000000000200000000000,
|
||
300000000000300000000000300000000000400000000000,
|
||
600000000000000000000000000000800000000000000000,
|
||
000000000000000000000000000000000000000000000000,
|
||
100000000000100000000000100000100000100000000000,
|
||
200000000000200000000000200000200000200000000000,
|
||
100000000000100000000000200000200000200000000000,
|
||
100000000000100000000000100000000000000000000000,
|
||
100000000000100000000000200000000000200000000000,
|
||
300000000000300000000000300000000000400000000000,
|
||
600000000000000000000000000000800000000000000000,
|
||
300000000000300000000000000000000000000000000000,
|
||
600000000000000000000000000000000000000000000000,
|
||
800000000000000000000000000000000000000000000000,
|
||
|
||
|
||
#END
|
||
|
||
|
||
COURSE:Easy
|
||
LEVEL:1
|
||
BALLOON:10,10
|
||
SCOREINIT:910
|
||
SCOREDIFF:503
|
||
|
||
|
||
#START
|
||
|
||
|
||
100000000000000000000000000000000000000000000000,
|
||
100000000000000000000000000000000000000000000000,
|
||
100000000000000000000000100000000000000000000000,
|
||
100000000000000000000000000000000000000000000000,
|
||
100000000000000000000000100000000000000000000000,
|
||
100000000000100000000000100000000000000000000000,
|
||
500000000000000000000000000000000000800000000000,
|
||
000000000000000000000000000000000000000000000000,
|
||
9,
|
||
8,
|
||
100000000000000000000000100000000000000000000000,
|
||
100000000000000000000000000000000000000000000000,
|
||
200000000000000000000000200000000000000000000000,
|
||
500000000000000000000000800000000000000000000000,
|
||
100000000000000000000000100000000000000000000000,
|
||
100000000000000000000000000000000000000000000000,
|
||
100000000000000000000000100000000000100000000000,
|
||
100000000000000000000000100000000000100000000000,
|
||
100000000000000000000000100000000000000000000000,
|
||
100000000000000000000000000000000000000000000000,
|
||
200000000000000000000000200000000000000000000000,
|
||
500000000000000000000000800000000000000000000000,
|
||
100000000000000000000000100000000000000000000000,
|
||
100000000000000000000000000000000000000000000000,
|
||
100000000000000000000000100000000000100000000000,
|
||
100000000000000000000000100000000000000000000000,
|
||
300000000000000000300000000000000000000000000000,
|
||
300000000000000000300000000000000000000000000000,
|
||
100000000000100000000000100000000000000000000000,
|
||
200000000000200000000000200000000000000000000000,
|
||
100000000000100000000000200000000000200000000000,
|
||
9,
|
||
8,
|
||
#GOGOSTART
|
||
100000000000000000000000100000000000100000000000,
|
||
100000000000000000000000200000000000200000000000,
|
||
100000000000000000000000100000000000100000000000,
|
||
100000000000000000000000200000000000200000000000,
|
||
100000000000000000000000100000000000100000000000,
|
||
300000000000300000000000300000000000000000000000,
|
||
600000000000000000000000000000800000000000000000,
|
||
000000000000000000000000000000000000000000000000,
|
||
100000000000000000000000100000000000100000000000,
|
||
100000000000000000000000200000000000200000000000,
|
||
100000000000000000000000100000000000100000000000,
|
||
100000000000000000000000200000000000200000000000,
|
||
100000000000000000000000100000000000100000000000,
|
||
300000000000300000000000300000000000000000000000,
|
||
600000000000000000000000800000000000000000000000,
|
||
300000000000300000000000000000000000000000000000,
|
||
600000000000000000000000000000000000000000000000,
|
||
800000000000000000000000000000000000000000000000,
|
||
|
||
|
||
#END
|
||
|