Files
ESE/01 Pop/Atsuki Kodou no Hate/Atsuki Kodou no Hate.tja
T
2023-06-15 19:15:39 -05:00

423 lines
18 KiB
Plaintext
Raw Blame History

This file contains ambiguous Unicode characters
This file contains Unicode characters that might be confused with other characters. If you think that this is intentional, you can safely ignore this warning. Use the Escape button to reveal them.
//TJADB Project
TITLE:Atsuki Kodou no Hate
TITLEJA:熱き鼓動の果て
SUBTITLE:--B’z
BPM:136
WAVE:Atsuki Kodou no Hate.ogg
OFFSET:-2.160
DEMOSTART:124.109
COURSE:Oni
LEVEL:3
#START
100000000000000000000000000000000000000000000000,
100000000000100000000000100000000000000000000000,
100000000000100000000000100000000000000000000000,
100000000000000000000000000000000000000000000000,
100000000000000000000000000000000000000000000000,
100000000000100000000000100000000000000000000000,
100000000000000000000000000000000000000000000000,
100000000000100000000000100000000000000000000000,
100000000000000000000000200000000000200000000000,
200000000000000000000000100000100000000000000000,
100000000000000000000000100000100000000000000000,
100000000000100000000000100000000000000000000000,
100000000000000000000000200000000000200000000000,
200000000000000000000000100000100000000000000000,
100000000000000000000000100000100000000000000000,
100000000000100000000000100000000000000000000000,
100000000000000000000000200000000000200000000000,
200000000000000000000000100000100000000000000000,
100000000000000000000000100000100000000000000000,
100000000000100000000000100000000000000000000000,
100000000000000000000000200000000000200000000000,
200000000000000000000000100000100000000000000000,
100000000000000000000000100000100000000000000000,
300000000000000000000000100000100000000000000000,
300000000000000000000000100000100000000000000000,
300000000000100000100000100000000000000000000000,
300000000000100000100000100000000000000000000000,
100000000000100000000000100000000000100000000000,
300000000000000000000000100000100000100000000000,
100000000000000000000000100000100000100000000000,
100000000000200000000000100000000000200000000000,
100000000000100000000000200000000000000000000000,
100000000000000000000000100000100000100000000000,
100000000000000000000000100000100000100000000000,
100000000000200000000000100000000000200000000000,
100000000000100000000000200000000000000000000000,
100000000000100000000000200000000000000000000000,
100000100000100000100000100000000000000000000000,
100000100000100000100000100000000000000000000000,
100000100000100000100000100000000000000000000000,
100000100000100000100000100000000000000000000000,
100000100000100000100000200000000000200000000000,
100000100000100000100000200000000000200000000000,
100000100000100000100000200000000000200000000000,
100000000000100000000000100000000000100000000000,
100000000000100000000000100000000000100000000000,
#BPMCHANGE 144
100000100000100000100000100000100000100000100000,
100000100000100000100000100000000000000000000000,
100000000000100000000000000000000000000000000000,
100000000000200000200000100000000000200000000000,
100000000000200000200000100000000000200000000000,
100000000100100000100000100000000000200000000000,
100000000100100000100000100000000000200000000000,
100000000000200000200000100000000000200000000000,
100000000000200000200000100000000000200000000000,
100000000100100000100000100000000000200000000000,
100000000100100000100000100000000000200000000000,
100000100100200000200000100000000000200000000000,
100000100100200000200000100000000000200000000000,
100000000200200000200000200000000000200000000000,
100000000200200000200000200000000000200000000000,
100000100100200000200000100000000000200000000000,
100000100100200000200000100000000000200000000000,
100000000200200000200000200000000000200000000000,
100000000200200000200000200000000000200000000000,
100100100000200000000000100100100000200000000000,
100100100000200000000000100100100000200000000000,
100100100000200000200000100100100000200000200000,
100000200000100000200000100000200000100000000000,
500000000000000000000000000000000008000000000000,
300000000000000000000000200000200000200000000000,
100000100000200000000000100100100000200000000000,
100000100000200000000000100100100000200000000000,
100000000000100000000000100000000000000000000000,
300000000000000000000000200200200200200000000000,
100000100000200000000000100100100000200000000000,
100000100000200000000000100100100000200000000000,
100000000000100000000000100000000000000000000000,
300000000000000000000000000000000000000000000000,
100000100000100000100000100000000000200000100000,
000000100000100000100000100000000000200000100000,
000000100000100000100000100000000000200000100000,
000000100000100000100000100000000000000000000000,
100100100000100000100000100000000000200000100000,
000000100100100000100000100000000000200000100000,
000000100100100000200000000000100000100000000000,
500000000000000000000000000000000000000000000008,
000000000000000000000000000000000000000000000000,
300000000000000000000000000000000000000000000000,
#END
COURSE:Hard
LEVEL:2
SCOREINIT:530
SCOREDIFF:120
#START
100000000000000000000000000000000000000000000000,
100000000000100000000000100000000000000000000000,
100000000000100000000000100000000000000000000000,
100000000000000000000000000000000000000000000000,
100000000000000000000000000000000000000000000000,
100000000000100000000000100000000000000000000000,
100000000000000000000000000000000000000000000000,
100000000000100000000000100000000000000000000000,
100000000000000000000000200000000000200000000000,
200000000000000000000000100000100000000000000000,
100000000000000000000000100000100000000000000000,
100000000000100000000000100000000000000000000000,
100000000000000000000000200000000000200000000000,
200000000000000000000000100000100000000000000000,
100000000000000000000000100000100000000000000000,
100000000000100000000000100000000000000000000000,
100000000000000000000000200000000000200000000000,
200000000000000000000000100000100000000000000000,
100000000000000000000000100000100000000000000000,
100000000000100000000000100000000000000000000000,
100000000000000000000000200000000000200000000000,
200000000000000000000000100000100000000000000000,
100000000000000000000000100000100000000000000000,
300000000000000000000000100000100000000000000000,
300000000000000000000000100000100000000000000000,
300000000000100000100000100000000000000000000000,
300000000000100000100000100000000000000000000000,
100000000000100000000000100000000000100000000000,
300000000000000000000000100000100000100000000000,
100000000000000000000000100000100000100000000000,
100000000000000000000000100000000000000000000000,
100000000000100000000000200000000000000000000000,
100000000000000000000000100000100000100000000000,
100000000000000000000000100000100000100000000000,
100000000000000000000000100000000000000000000000,
100000000000100000000000200000000000000000000000,
100000000000100000000000200000000000000000000000,
100000000000100000100000100000000000000000000000,
100000000000100000100000100000000000000000000000,
100000000000100000100000100000000000000000000000,
100000000000100000100000100000000000000000000000,
100000000000100000100000100000000000200000000000,
100000000000100000100000100000000000200000000000,
100000000000100000100000100000000000200000000000,
100000000000100000000000100000000000100000000000,
100000000000100000000000100000000000100000000000,
#BPMCHANGE 144
100000100000100000100000100000100000100000100000,
100000100000100000100000100000000000000000000000,
100000000000100000000000000000000000000000000000,
100000000000200000200000100000000000200000000000,
100000000000200000200000100000000000200000000000,
100000000100100000100000100000000000200000000000,
100000000100100000100000100000000000200000000000,
100000000000200000200000100000000000200000000000,
100000000000200000200000100000000000200000000000,
100000000100100000100000100000000000200000000000,
100000000100100000100000100000000000200000000000,
100000000000200000200000100000000000200000000000,
100000000000200000200000100000000000200000000000,
100000000200200000200000200000000000200000000000,
100000000200200000200000200000000000200000000000,
100000000000200000200000100000000000200000000000,
100000000000200000200000100000000000200000000000,
100000000200200000200000200000000000200000000000,
100000000200200000200000200000000000200000000000,
100000100000200000000000100000100000200000000000,
100000100000200000000000100000100000200000000000,
100000100000200000000000100000100000200000000000,
100000000000100000000000100000000000100000000000,
500000000000000000000000000000800000000000000000,
300000000000000000000000200000200000200000000000,
100000000000200000000000100000100000200000000000,
100000000000200000000000100000100000200000000000,
100000000000100000000000100000000000000000000000,
300000000000000000000000200000200000200000000000,
100000000000200000000000100000100000200000000000,
100000000000200000000000100000100000200000000000,
100000000000100000000000100000000000000000000000,
300000000000000000000000000000000000000000000000,
100000100000100000100000100000000000200000100000,
000000100000100000100000100000000000200000100000,
000000100000100000100000100000000000200000100000,
000000100000100000100000100000000000000000000000,
100000100000100000100000100000000000200000100000,
000000100000100000100000100000000000200000100000,
000000100000100000100000000000100000100000000000,
500000000000000000000000000000000000000000800000,
000000000000000000000000000000000000000000000000,
300000000000000000000000000000000000000000000000,
#END
COURSE:Normal
LEVEL:4
SCOREINIT:670
SCOREDIFF:160
#START
100000000000000000000000000000000000000000000000,
100000000000000000000000000000000000000000000000,
100000000000000000000000000000000000000000000000,
100000000000000000000000000000000000000000000000,
100000000000000000000000100000000000000000000000,
100000000000100000000000100000000000000000000000,
100000000000000000000000000000000000000000000000,
100000000000100000000000100000000000000000000000,
100000000000000000000000200000000000200000000000,
200000000000000000000000100000100000000000000000,
100000000000000000000000100000100000000000000000,
100000000000100000000000100000000000000000000000,
100000000000000000000000200000000000200000000000,
200000000000000000000000100000100000000000000000,
100000000000000000000000100000100000000000000000,
100000000000100000000000100000000000000000000000,
100000000000000000000000200000000000200000000000,
200000000000000000000000100000100000000000000000,
100000000000000000000000100000100000000000000000,
100000000000100000000000100000000000000000000000,
100000000000000000000000200000000000200000000000,
200000000000000000000000100000100000000000000000,
100000000000000000000000100000100000000000000000,
300000000000000000000000100000100000000000000000,
300000000000000000000000100000100000000000000000,
100000000000100000000000100000000000000000000000,
100000000000100000000000100000000000000000000000,
100000000000100000000000100000000000100000000000,
300000000000000000000000100000100000100000000000,
100000000000000000000000100000100000100000000000,
100000000000000000000000100000000000000000000000,
100000000000100000000000200000000000000000000000,
100000000000000000000000100000100000100000000000,
100000000000000000000000100000100000100000000000,
100000000000000000000000100000000000000000000000,
100000000000100000000000200000000000000000000000,
100000000000100000000000200000000000000000000000,
100000000000100000100000100000000000000000000000,
100000000000100000100000100000000000000000000000,
100000000000100000100000100000000000000000000000,
100000000000100000100000100000000000000000000000,
200000000000100000100000100000000000000000000000,
200000000000100000100000100000000000000000000000,
200000000000100000100000100000000000000000000000,
100000000000000000000000100000000000000000000000,
100000000000000000000000100000000000000000000000,
#BPMCHANGE 144
100000000000100000000000100000000000100000000000,
100000000000100000000000100000000000000000000000,
300000000000300000000000000000000000000000000000,
100000000000100000100000100000000000200000000000,
100000000000000000000000200000000000000000000000,
100000000000100000100000100000000000200000000000,
100000000000000000000000200000000000000000000000,
100000000000100000100000100000000000200000000000,
100000000000000000000000200000000000000000000000,
100000000000100000100000100000000000200000000000,
100000000000000000000000200000000000000000000000,
100000000000100000100000100000000000200000000000,
100000000000000000000000200000000000000000000000,
100000000000100000100000100000000000200000000000,
100000000000000000000000200000000000000000000000,
100000000000100000100000100000000000200000000000,
100000000000000000000000200000000000000000000000,
100000000000100000100000100000000000200000000000,
100000000000000000000000200000000000000000000000,
100000100000000000000000100000100000000000000000,
100000100000000000000000100000100000000000000000,
100000100000000000000000100000100000000000000000,
100000000000100000000000100000000000100000000000,
500000000000000000000000000000800000000000000000,
300000000000000000000000200000200000200000000000,
100000000000200000000000100000100000200000000000,
100000000000200000000000100000100000200000000000,
100000000000100000000000100000000000000000000000,
300000000000000000000000200000200000200000000000,
100000000000200000000000100000100000200000000000,
100000000000200000000000100000100000200000000000,
100000000000100000000000100000000000000000000000,
300000000000000000000000000000000000000000000000,
100000100000100000000000100000000000000000200000,
000000000000100000000000100000000000000000200000,
000000000000100000000000100000000000000000200000,
000000000000100000000000100000000000000000000000,
100000100000100000000000100000000000000000200000,
000000000000100000000000100000000000000000200000,
000000000000100000000000000000000000100000000000,
500000000000000000000000000000000000000000800000,
000000000000000000000000000000000000000000000000,
300000000000000000000000000000000000000000000000,
#END
COURSE:Easy
LEVEL:3
SCOREINIT:740
SCOREDIFF:210
#START
100000000000000000000000000000000000000000000000,
100000000000000000000000000000000000000000000000,
100000000000000000000000000000000000000000000000,
100000000000000000000000000000000000000000000000,
100000000000000000000000000000000000000000000000,
100000000000000000000000000000000000000000000000,
100000000000000000000000000000000000000000000000,
100000000000000000000000100000000000000000000000,
100000000000000000000000100000000000100000000000,
100000000000000000000000000000000000000000000000,
100000000000000000000000000000000000000000000000,
100000000000000000000000100000000000000000000000,
100000000000000000000000100000000000100000000000,
100000000000000000000000000000000000000000000000,
100000000000000000000000000000000000000000000000,
100000000000000000000000100000000000000000000000,
100000000000000000000000100000000000100000000000,
100000000000000000000000000000000000000000000000,
100000000000000000000000000000000000000000000000,
100000000000000000000000100000000000000000000000,
100000000000000000000000100000000000100000000000,
100000000000000000000000000000000000000000000000,
100000000000000000000000000000000000000000000000,
300000000000000000000000100000000000000000000000,
300000000000000000000000100000000000000000000000,
100000000000100000000000100000000000000000000000,
100000000000100000000000100000000000000000000000,
100000000000000000000000100000000000000000000000,
300000000000000000000000000000000000000000000000,
100000000000000000000000100000000000100000000000,
100000000000000000000000100000000000000000000000,
100000000000000000000000200000000000000000000000,
100000000000000000000000200000000000000000000000,
100000000000000000000000100000000000100000000000,
100000000000000000000000100000000000000000000000,
100000000000000000000000200000000000000000000000,
100000000000000000000000200000000000000000000000,
100000000000100000000000100000000000000000000000,
100000000000100000000000100000000000000000000000,
100000000000100000000000100000000000000000000000,
100000000000100000000000100000000000000000000000,
100000000000100000000000200000000000000000000000,
100000000000100000000000200000000000000000000000,
100000000000100000000000200000000000000000000000,
500000000000000000000000000000800000000000000000,
000000000000000000000000000000000000000000000000,
#BPMCHANGE 144
100000000000100000000000100000000000100000000000,
100000000000100000000000100000000000100000000000,
300000000000000000000000000000000000000000000000,
100000000000100000000000000000000000100000000000,
200000000000000000000000100000000000000000000000,
100000000000100000000000000000000000100000000000,
200000000000000000000000100000000000000000000000,
100000000000100000000000000000000000100000000000,
200000000000000000000000100000000000000000000000,
100000000000100000000000000000000000100000000000,
200000000000000000000000100000000000000000000000,
100000000000100000000000100000000000100000000000,
200000000000000000000000100000000000000000000000,
100000000000100000000000100000000000100000000000,
200000000000000000000000100000000000000000000000,
100000000000100000000000100000000000100000000000,
200000000000000000000000100000000000000000000000,
100000000000100000000000100000000000100000000000,
200000000000000000000000100000000000000000000000,
100000000000000000000000100000000000000000000000,
100000000000000000000000100000000000000000000000,
100000000000000000000000100000000000000000000000,
100000000000100000000000100000000000100000000000,
500000000000000000000000000000800000000000000000,
300000000000000000000000000000000000000000000000,
100000000000000000000000100000000000000000000000,
100000000000100000000000100000000000000000000000,
100000000000000000000000100000000000000000000000,
200000000000000000000000000000000000000000000000,
100000000000000000000000100000000000000000000000,
100000000000100000000000100000000000000000000000,
100000000000000000000000100000000000000000000000,
200000000000000000000000000000000000000000000000,
100000000000000000000000000000000000000000000000,
100000000000000000000000000000000000000000000000,
100000000000000000000000000000000000000000000000,
100000000000000000000000000000000000000000000000,
100000000000100000000000200000000000000000000000,
100000000000100000000000200000000000000000000000,
100000000000100000000000200000000000000000000000,
500000000000000000000000000000000000000000000000,
000000000000000000800000000000000000000000000000,
300000000000000000000000000000000000000000000000,
#END